Results 1 to 1 of 1
  1. #1

    Default War Horse 2011 DVDScr x264-INFERNO (1GB, Upscaled 720p)

    Follow us on Social Media





    War Horse 2011 DVDScr x264-INFERNO (1GB, Upscaled 720p)

    This file was not capped / created by the uploader. Full credit and all of your thanks should go to that person. If this is your file, thank you


    Code:
    Description	
    
    IMDB Link/Rating
    
    http://www.imdb.com/title/tt1568911/
    
     7.6/10
    
    Source Used
    
     War.Horse.2011.DVDScr.XVID.AC3.HQ.Hive-CM8 (Thanks)
    
    General
    
     Complete name                    : War Horse 2011 DVDScr x264-INFERNO (1GB, Upscaled 720p).mp4
     Format                           : MPEG-4
     Format profile                   : Base Media
     Codec ID                         : isom
     File size                        : 1 018 MiB
     Duration                         : 2h 18mn
     Overall bit rate                 : 1 029 Kbps
    
    Video
    
     Format                           : AVC
     Format/Info                      : Advanced Video Codec
     Format profile                   : [email protected]
     Format settings, CABAC           : Yes
     Format settings, ReFrames        : 2 frames
     Codec ID                         : avc1
     Codec ID/Info                    : Advanced Video Coding
     Duration                         : 2h 18mn
     Bit rate mode                    : Variable
     Bit rate                         : 898 Kbps
     Maximum bit rate                 : 3 032 Kbps
     Width                            : 1 280 pixels
     Height                           : 544 pixels
     Display aspect ratio             : 2.35
     Frame rate mode                  : Constant
     Frame rate                       : 23.976 fps
     Resolution                       : 24 bits
     Colorimetry                      : 4:2:0
     Scan type                        : Progressive
     Bits/(Pixel*Frame)               : 0.054
     Stream size                      : 888 MiB (87%)
    
    Audio
    
     Format                           : AAC
     Format/Info                      : Advanced Audio Codec
     Format version                   : Version 4
     Format profile                   : LC
     Format settings, SBR             : No
     Codec ID                         : 40
     Duration                         : 2h 18mn
     Bit rate mode                    : Variable
     Bit rate                         : 128 Kbps
     Maximum bit rate                 : 138 Kbps
     Channel(s)                       : 2 channels
     Channel positions                : L R
     Sampling rate                    : 48.0 KHz
     Resolution                       : 16 bits
     Stream size                      : 127 MiB (12%)


    Code:
     
    http://oron.com/71cvk7mai6lt
    
    http://www.filesonic.com/file/KkbD2qV
    
    http://www.fileserve.com/file/Zsk8vgz
    
    http://download.hellshare.com/war-horse-2011-dvdscr-x264-inferno-1gb-upscaled-720p-mp4/4706569/
    
    http://filepost.com/files/41d4f9e1/War_Horse_2011_DVDScr_x264-INFERNO_(1GB,_Upscaled_720p).mp4/
    
    http://depositfiles.com/files/522ifomz0

 

 

Posting Permissions

  • You may not post new threads
  • You may not post replies
  • You may not post attachments
  • You may not edit your posts
  •