Results 1 to 1 of 1
  1. #1

    Wink EK The Power Of One (2009) ~ 1/3 ~ DvDRiP ~ XVID ~ E - Sub

    Follow us on Social Media







    EK The Power Of One (2009) ~ 1/3 ~ DvDRiP ~ XVID ~ E-sub









    Code:
    
    Format                           : AVI
    Format/Info                      : Audio Video Interleave
    Format profile                   : OpenDML
    File size                        : 1.45 GiB
    Duration                         : 2h 32mn
    Overall bit rate                 : 1 354 Kbps
    
    
    Video
    Format                           : MPEG-4 Visual
    Format profile                   : Streaming [email protected]
    Format settings, BVOP            : Yes
    Format settings, QPel            : No
    Format settings, GMC             : No warppoints
    Format settings, Matrix          : Default
    Codec ID                         : XVID
    Codec ID/Hint                    : XviD
    Duration                         : 2h 32mn
    Bit rate                         : 1 254 Kbps
    Width                            : 720 pixels
    Height                           : 304 pixels
    Display aspect ratio             : 2.35
    Frame rate                       : 29.970 fps
    Resolution                       : 24 bits
    Colorimetry                      : 4:2:0
    Scan type                        : Progressive
    Bits/(Pixel*Frame)               : 0.191
    Stream size                      : 1.34 GiB (93%)
    
    Audio
    Format                           : MPEG Audio
    Format version                   : Version 1
    Format profile                   : Layer 3
    Codec ID                         : 55
    Codec ID/Hint                    : MP3
    Duration                         : 2h 32mn
    Bit rate mode                    : Constant
    Bit rate                         : 96.0 Kbps
    Channel(s)                       : 2 channels
    Sampling rate                    : 44.1 KHz
    Resolution                       : 16 bits
    Stream size                      : 105 MiB (7%)
    Alignment                        : Aligned on interleaves
    source: [email protected]



























    Rapidshare:
    Code:
    http://rapidshare.com/files/223129598/TS.ETPOO.By.TuhiN.TeaM.SparkaR.avi.001
    http://rapidshare.com/files/223130076/TS.ETPOO.By.TuhiN.TeaM.SparkaR.avi.002
    http://rapidshare.com/files/223130475/TS.ETPOO.By.TuhiN.TeaM.SparkaR.avi.003
    http://rapidshare.com/files/223130523/TS.ETPOO.By.TuhiN.TeaM.SparkaR.avi.004
    http://rapidshare.com/files/223130855/TS.ETPOO.By.TuhiN.TeaM.SparkaR.avi.005
    http://rapidshare.com/files/223131057/TS.ETPOO.By.TuhiN.TeaM.SparkaR.avi.006
    http://rapidshare.com/files/223131119/TS.ETPOO.By.TuhiN.TeaM.SparkaR.avi.007
    http://rapidshare.com/files/223130952/TS.ETPOO.By.TuhiN.TeaM.SparkaR.avi.008
    
    Sub:
    http://rapidshare.com/files/223131041/TS.ETPOO.By.TuhiN.TeaM.SparkaR.srt




    Filezzz:

    Code:
    http://www.filezzz.com/download/71624/TS.ETPOO.By.TuhiN.TeaM.SparkaR.avi.html
    
    Sub:
    http://www.filezzz.com/download/71625/TS.ETPOO.By.TuhiN.TeaM.SparkaR.srt.html

 

 

Posting Permissions

  • You may not post new threads
  • You may not post replies
  • You may not post attachments
  • You may not edit your posts
  •