Results 1 to 1 of 1
  1. #1
    dR Rockers www.desirulez.net
    Join Date
    Sep 2011
    Posts
    1,288

    T

    Arrow WWE.Monday.Night.RAW.2012.01.09.HDTV.XviD-Vasylius

    Follow us on Social Media











    WWE.Monday.Night.RAW.2012.01.09.HDTV.XviD-Vasylius





    Code:
    General
    Complete name                            : D:\WWE.Monday.Night.RAW.2012.01.09.HDTV.XviD.vasylius.avi
    Format                                  : AVI
    Format/Info                              : Audio Video Interleave
    File size                                : 860 MiB
    Duration                                : 1h 29mn
    Overall bit rate                        : 1 336 Kbps
    Writing application                      : TMPGEnc Video Mastering Works 5 Version. 5.0.6.38
    Writing library                          : TMPGEnc Video Mastering Works 5 Version. 5.0.6.38
    
    Video
    ID                                      : 0
    Format                                  : MPEG-4 Visual
    Format profile                          : Advanced [email protected]
    Format settings, BVOP                    : 2
    Format settings, QPel                    : No
    Format settings, GMC                    : No warppoints
    Format settings, Matrix                  : Default (H.263)
    Muxing mode                              : Packed bitstream
    Codec ID                                : XVID
    Codec ID/Hint                            : XviD
    Duration                                : 1h 29mn
    Bit rate                                : 1 199 Kbps
    Width                                    : 624 pixels
    Height                                  : 352 pixels
    Display aspect ratio                    : 16:9
    Frame rate                              : 29.970 fps
    Color space                              : YUV
    Chroma subsampling                      : 4:2:0
    Bit depth                                : 8 bits
    Scan type                                : Progressive
    Compression mode                        : Lossy
    Bits/(Pixel*Frame)                      : 0.182
    Stream size                              : 771 MiB (90%)
    Writing library                          : XviD 1.2.1 (UTC 2008-12-04)
    
    Audio
    ID                                      : 1
    Format                                  : AC-3
    Format/Info                              : Audio Coding 3
    Mode extension                          : CM (complete main)
    Codec ID                                : 2000
    Duration                                : 1h 29mn
    Bit rate mode                            : Constant
    Bit rate                                : 128 Kbps
    Channel(s)                              : 2 channels
    Channel positions                        : Front: L R
    Sampling rate                            : 48.0 KHz
    Bit depth                                : 16 bits
    Compression mode                        : Lossy
    Stream size                              : 82.4 MiB (10%)
    Alignment                                : Aligned on interleaves
    Interleave, duration                    : 240 ms (7.19 video frames)
    Interleave, preload duration            : 480 ms






    Code:
    FILESONIC
    http://www.filesonic.com/file/yLeoBtB/WWE.Monday.Night.RAW.2012.01.09.HDTV.XviD.vasylius.avi
    
    FILESERVE
    http://www.fileserve.com/file/wCnehKR/WWE.Monday.Night.RAW.2012.01.09.HDTV.XviD.vasylius.avi
    
    FILEJUNGLE
    http://www.filejungle.com/f/nEmvBX/WWE.Monday.Night.RAW.2012.01.09.HDTV.XviD.vasylius.avi
    
    GROOVEFILE
    http://groovefile.com/ohdo3q4ql4es/WWE.Monday.Night.RAW.2012.01.09.HDTV.XviD.vasylius.avi.html

 

 

Posting Permissions

  • You may not post new threads
  • You may not post replies
  • You may not post attachments
  • You may not edit your posts
  •