Results 1 to 1 of 1
  1. #1
    dR Rockers www.desirulez.net
    Join Date
    Aug 2011
    Posts
    5,859

    T

    Cool Lootmaar [1982] - 1.45GB - DVDRip - XviD - AC3 - KK4EVER

    Follow us on Social Media










    ************************************************** ***************
    Lootmaar [1982] DVDRip Xvid AC3 - 6 -=- KK4EVER [email protected]
    ************************************************** ***************

    HTML Code:
    General
    Complete name : E:\Ripped\Lootmaar [1982] DVDRip Xvid AC3 - 6 -=- KK4EVER [email protected]\Lootmaar [1982] DVDRip Xvid AC3 - 6 -=- KK4EVER [email protected]
    Format : AVI
    Format/Info : Audio Video Interleave
    File size : 1.45 GiB
    Duration : 2h 37mn
    Overall bit rate : 1 320 Kbps

    Video
    ID : 0
    Format : MPEG-4 Visual
    Format profile : Advanced [email protected]
    Format settings, BVOP : 2
    Format settings, QPel : No
    Format settings, GMC : No warppoints
    Format settings, Matrix : Default (H.263)
    Codec ID : XVID
    Codec ID/Hint : XviD
    Duration : 2h 37mn
    Bit rate : 1 056 Kbps
    Width : 640 pixels
    Height : 304 pixels
    Display aspect ratio : 2.2:1
    Frame rate : 23.976 fps
    Color space : YUV
    Chroma subsampling : 4:2:0
    Bit depth : 8 bits
    Scan type : Progressive
    Compression mode : Lossy
    Bits/(Pixel*Frame) : 0.226
    Stream size : 1.16 GiB (80%)
    Writing library : XviD 1.2.1 (UTC 2008-12-04)

    Audio
    ID : 1
    Format : AC-3
    Format/Info : Audio Coding 3
    Mode extension : CM (complete main)
    Codec ID : 2000
    Duration : 2h 37mn
    Bit rate mode : Constant
    Bit rate : 256 Kbps
    Channel(s) : 6 channels
    Channel positions : Front: L C R, Side: L R, LFE
    Sampling rate : 48.0 KHz
    Bit depth : 16 bits
    Compression mode : Lossy
    Stream size : 289 MiB (19%)
    Alignment : Aligned on interleaves
    Interleave, duration : 64 ms (1.53 video frames)
    Interleave, preload duration : 192 ms
    Title : VTS_01_1 T80 3_2ch 384Kbps DELAY 0ms_new









    SINGLE LINK

    Code:
    http://www.filesonic.com/file/YDLX2AC/Lootmaar [1982] DVDRip Xvid AC3 - 6 -=- KK4EVER [email protected]
    Code:
    http://www.fileserve.com/file/jxZwscs/Lootmaar [1982] DVDRip Xvid AC3 - 6 -=- KK4EVER [email protected]
    Code:
    http://www.filejungle.com/f/xftkxB/Lootmaar [1982] DVDRip Xvid AC3 - 6 -=- KK4EVER [email protected]

    450MB LINKS

    Code:
    http://www.filesonic.com/file/FyMAoGG/Lootmaar [1982] DVDRip Xvid AC3 - 6 -=- KK4EVER [email protected]
    http://www.filesonic.com/file/QNgRmBF/Lootmaar [1982] DVDRip Xvid AC3 - 6 -=- KK4EVER [email protected]
    http://www.filesonic.com/file/OHSuCiw/Lootmaar [1982] DVDRip Xvid AC3 - 6 -=- KK4EVER [email protected]
    http://www.filesonic.com/file/AQHSi7Y/Lootmaar [1982] DVDRip Xvid AC3 - 6 -=- KK4EVER [email protected]
    
    
    http://www.fileserve.com/file/q7qQYpA/Lootmaar [1982] DVDRip Xvid AC3 - 6 -=- KK4EVER [email protected]
    http://www.fileserve.com/file/NQZ9CJs/Lootmaar [1982] DVDRip Xvid AC3 - 6 -=- KK4EVER [email protected]
    http://www.fileserve.com/file/RNKZzMH/Lootmaar [1982] DVDRip Xvid AC3 - 6 -=- KK4EVER [email protected]
    http://www.fileserve.com/file/Ud35zUg/Lootmaar [1982] DVDRip Xvid AC3 - 6 -=- KK4EVER [email protected]
    
    
    http://www.filejungle.com/f/smX7wp/Lootmaar [1982] DVDRip Xvid AC3 - 6 -=- KK4EVER [email protected]
    http://www.filejungle.com/f/kDB3JW/Lootmaar [1982] DVDRip Xvid AC3 - 6 -=- KK4EVER [email protected]
    http://www.filejungle.com/f/kZ9nZD/Lootmaar [1982] DVDRip Xvid AC3 - 6 -=- KK4EVER [email protected]
    http://www.filejungle.com/f/sr3Epk/Lootmaar [1982] DVDRip Xvid AC3 - 6 -=- KK4EVER [email protected]

 

 

Posting Permissions

  • You may not post new threads
  • You may not post replies
  • You may not post attachments
  • You may not edit your posts
  •