Results 1 to 1 of 1
  1. #1
    THE GREAT ONE www.desirulez.net
    Join Date
    Mar 2011
    Location
    Hell
    Posts
    1,333

    T

    Talking Players (2012) - 1/5 MC DVDScr Rip - XviD - AC3 - 900MB - [TDT]

    Follow us on Social Media







    Players (2012) - 1/5 MC DVDScr Rip - XviD - AC3 - 900MB - [TDT]





    Code:
    General
    Complete name : Play3rzZz2012_-_1-5-MC-DVDScr-Rip-XviD-AC3-900MB-TDT.avi
    IMDB : www.imdb.com/title/tt1784589/
    Format : AVI
    Format/Info : Audio Video Interleave
    File size : 895 MiB
    Duration : 2h 40mn
    Overall bit rate : 778 Kbps
    Writing application : VirtualDubMod 1.5.10.3 | www.virtualdub-fr.org || (build 2550/release)
    Writing library : VirtualDubMod build 2550/release
    Source : DvDScr @ Team ICTV .. Thnx A LOT
    Ripper : KINGFISHER [~TDT~].
    Code:
    Video
    ID : 0
    Format : MPEG-4 Visual
    Format profile : Advanced [email protected]
    Format settings, BVOP : 1
    Format settings, QPel : No
    Format settings, GMC : No warppoints
    Format settings, Matrix : Default (H.263)
    Muxing mode : Packed bitstream
    Codec ID : XVID
    Codec ID/Hint : XviD
    Duration : 2h 40mn
    Bit rate : 673 Kbps
    Width : 672 pixels
    Height : 256 pixels
    Display aspect ratio : 2.625
    Frame rate : 23.976 fps
    Color space : YUV
    Chroma subsampling : 4:2:0
    Bit depth : 8 bits
    Scan type : Progressive
    Compression mode : Lossy
    Bits/(Pixel*Frame) : 0.163
    Stream size : 774 MiB (86%)
    Writing library : XviD 1.2.1 (UTC 2008-12-04)
    
    Audio
    ID : 1
    Format : AC-3
    Format/Info : Audio Coding 3
    Mode extension : CM (complete main)
    Codec ID : 2000
    Duration : 2h 40mn
    Bit rate mode : Constant
    Bit rate : 96.0 Kbps
    Channel(s) : 2 channels
    Channel positions : Front: L R
    Sampling rate : 48.0 KHz
    Bit depth : 16 bits
    Compression mode : Lossy
    Stream size : 110 MiB (12%)
    Alignment : Aligned on interleaves
    Interleave, duration : 42 ms (1.00 video frame)
    Interleave, preload duration : 512 ms


















    NOTE: IF YOUR THINKING Of BUYING PREMIUM..PLEASE GET IT FROM FILESONIC [From my Links Below]



    PREMIUM USERS
    Code:
    FILESONIC
    http://www.filesonic.com/file/l9p5Roo/Play3rzZz2012_-_1-5-MC-DVDScr-Rip-XviD-AC3-900MB-TDT.avi
    FREE USERS
    Code:
    FILEJUNGLE
    http://www.filejungle.com/f/FMVTnq
    
    FILESERVE
    http://www.fileserve.com/file/BYFq2MV

    TOOK ME HOURS TO UPLOAD THE RIP,BUT IT ONLY TAKES YOU SECONDS TO SAY THANKS
    SO PLEASE SAY THANKS AND ENJOY

 

 

Posting Permissions

  • You may not post new threads
  • You may not post replies
  • You may not post attachments
  • You may not edit your posts
  •