Results 1 to 1 of 1
  1. #1
    dR Rockers www.desirulez.net
    Join Date
    Apr 2011
    Location
    desirulez.net
    Posts
    192

    Default Players (2012) 1CD CAMRip XviD Mp3 800MB

    Follow us on Social Media





    Players
    (2012) 1CD PDVDRip XviD Mp3






    Code:
    Format                                   : AVI
    Format/Info                              : Audio Video Interleave
    File size                                : 800 MiB
    Duration                                 : 2h 25mn
    Overall bit rate                         : 767 Kbps
    Writing application                      : Lavf52.39.1
    Writing library                          : VirtualDub build 32842/release
    
    Video
    ID                                       : 0
    Format                                   : MPEG-4 Visual
    Format profile                           : Advanced [email protected]
    Format settings, BVOP                    : 2
    Format settings, QPel                    : No
    Format settings, GMC                     : No warppoints
    Format settings, Matrix                  : Default (H.263)
    Muxing mode                              : Packed bitstream
    Codec ID                                 : XVID
    Codec ID/Hint                            : XviD
    Duration                                 : 2h 25mn
    Bit rate                                 : 690 Kbps
    Width                                    : 602 pixels
    Height                                   : 266 pixels
    Display aspect ratio                     : 2.25:1
    Frame rate                               : 25.000 fps
    Color space                              : YUV
    Chroma subsampling                       : 4:2:0
    Bit depth                                : 8 bits
    Scan type                                : Progressive
    Compression mode                         : Lossy
    Bits/(Pixel*Frame)                       : 0.172
    Stream size                              : 720 MiB (90%)
    Writing library                          : XviD 64
    
    Audio
    ID                                       : 1
    Format                                   : MPEG Audio
    Format version                           : Version 1
    Format profile                           : Layer 3
    Mode                                     : Joint stereo
    Mode extension                           : MS Stereo
    Codec ID                                 : 55
    Codec ID/Hint                            : MP3
    Duration                                 : 2h 25mn
    Bit rate mode                            : Constant
    Bit rate                                 : 64.0 Kbps
    Channel(s)                               : 2 channels
    Sampling rate                            : 48.0 KHz
    Compression mode                         : Lossy
    Stream size                              : 66.8 MiB (8%)
    Alignment                                : Aligned on interleaves
    Interleave, duration                     : 24 ms (0.60 video frame)
    Interleave, preload duration             : 504 ms
    SCREENS










    SINGLELINKS

    Code:
    http://www.filesonic.com/file/Vq0oviL
    http://www.fileserve.com/file/RwxQ4KC/Players_%282011%29_Pdvd_Rip_XviD_Mp3.avi
    http://www.filejungle.com/f/Gt9QfM/Players_%282011%29_Pdvd_Rip_XviD_Mp3.avi


    Exclusive ReleaseR

 

 

Posting Permissions

  • You may not post new threads
  • You may not post replies
  • You may not post attachments
  • You may not edit your posts
  •