Results 1 to 2 of 2
  1. #1

    Default House Full 2010 720p Bluray Rip x264 [Team DS]

    Follow us on Social Media







    Media Information


    General

    Complete Name : Housefull 2010 BD Rip.avi
    Format : AVI
    Format/Info : Audio Video Interleave
    File size : 2.18 GiB
    Duration : 2h 29mn
    Overall bit rate : 2 089 Kbps

    Video

    Format : MPEG-4 Visual
    Duration : 2h 29mn
    Bit rate : 1 764 Kbps
    Width : 720 pixels
    Height : 304 pixels
    Display aspect ratio : 2.35:1
    Frame rate : 24.000 fps
    Resolution : 24 bits
    Colorimetry : 4:2:0
    Scan type : Progressive
    Bits/(Pixel*Frame) : 0.336
    Stream size : 1.84 GiB (84%)


    Audio

    Format : AC-3
    Duration : 2h 29mn
    Bit rate mode : Constant
    Bit rate : 320 Kbps
    Channel(s) : 6 channels
    Channel positions : Front: L C R, Surround: L R, LFE
    Sampling rate : 48.0 KHz
    Stream size : 342 MiB (15%)


    Screen Shots














    Download Links



    Code:
    http://www.filejungle.com/f/RtG2Kp/GMH-M-B-10-Leader-HouseFull.part1.rar
    http://www.filejungle.com/f/VhZjFN/GMH-M-B-10-Leader-HouseFull.part1.rev
    http://www.filejungle.com/f/CGn4Sj/GMH-M-B-10-Leader-HouseFull.part2.rar
    http://www.filejungle.com/f/kcwKGV/GMH-M-B-10-Leader-HouseFull.part3.rar
    http://www.filejungle.com/f/2J9u8R/GMH-M-B-10-Leader-HouseFull.part4.rar
    http://www.filejungle.com/f/hJXFMq/GMH-M-B-10-Leader-HouseFull.part5.rar


    Code:
    http://www.fileserve.com/file/QBFnyTK/GMH-M-B-10-Leader-HouseFull.part2.rar
    http://www.fileserve.com/file/HXnRQUy/GMH-M-B-10-Leader-HouseFull.part1.rev
    http://www.fileserve.com/file/EkUrwyr/GMH-M-B-10-Leader-HouseFull.part1.rar
    http://www.fileserve.com/file/wkTmfvt/GMH-M-B-10-Leader-HouseFull.part3.rar
    http://www.fileserve.com/file/wYaU7gD/GMH-M-B-10-Leader-HouseFull.part5.rar
    http://www.fileserve.com/file/TRXsmXC/GMH-M-B-10-Leader-HouseFull.part4.rar

    Password


    Leader

  2. #2
    Retired Staff www.desirulez.net
    Join Date
    Dec 2011
    Location
    Posts
    3,615

    T

    Default




    ι уσυ נυ∂gє ρєσρℓє, уσυ нανє ησ тιмє тσ ℓσνє тнєм.

    "Time Can Make Us Move On.. But It Can't Fix A Broken Heart"..

    ~♥♥~ My One Hand is Enough to fight against the world if you Hold the other One....! ~♥♥~



    "The PEOPLE Who want to STAY in your LIFE will always find a WAY"

 

 

Posting Permissions

  • You may not post new threads
  • You may not post replies
  • You may not post attachments
  • You may not edit your posts
  •