Results 1 to 1 of 1
  1. #1
    dR Contributor www.desirulez.net
    Join Date
    Feb 2011
    Location
    www.desirulez.net
    Posts
    482

    T

    Default Players (2012) 1CD Cam Rip XviD Mp3 ~ Dr Exclusive ~

    Follow us on Social Media







    Players (2012) 1CD Cam Rip XviD Mp3 ~ Dr Exclusive ~



    INFORMATION

    Code:
    Format                                   : AVI
    Format/Info                              : Audio Video Interleave
    File size                                : 804 MiB
    Duration                                 : 2h 25mn
    Overall bit rate                         : 770 Kbps
    Writing application                      : Lavf52.39.1
    
    Video
    ID                                       : 0
    Format                                   : xvid
    Codec ID                                 : xvid
    Duration                                 : 2h 25mn
    Bit rate                                 : 693 Kbps
    Width                                    : 352 pixels
    Height                                   : 288 pixels
    Display aspect ratio                     : 1.222
    Frame rate                               : 25.000 fps
    Standard                                 : PAL
    Bits/(Pixel*Frame)                       : 0.273
    Stream size                              : 723 MiB (90%)
    
    Audio
    ID                                       : 1
    Format                                   : MPEG Audio
    Format version                           : Version 1
    Format profile                           : Layer 3
    Mode                                     : Joint stereo
    Mode extension                           : MS Stereo
    Codec ID                                 : 55
    Codec ID/Hint                            : MP3
    Duration                                 : 2h 25mn
    Bit rate mode                            : Constant
    Bit rate                                 : 64.0 Kbps
    Channel(s)                               : 2 channels
    Sampling rate                            : 48.0 KHz
    Compression mode                         : Lossy
    Stream size                              : 66.8 MiB (8%)
    Alignment                                : Aligned on interleaves
    Interleave, duration                     : 24 ms (0.60 video frame)
    Interleave, preload duration             : 24 ms
    SCREENS








    Code:
    http://cramit.in/rdgunm96qgia

 

 

Posting Permissions

  • You may not post new threads
  • You may not post replies
  • You may not post attachments
  • You may not edit your posts
  •