Results 1 to 1 of 1
  1. #1
    Hot Member www.desirulez.me
    Join Date
    Nov 2011
    Posts
    6,026

    T

    Thumbs up WWE.Superstars.1.5.2012.360p.H.264.AAC.MM-snaw90-(Good quality)

    Follow us on Social Media







    WWE.Superstars.1.5.2012.360p.H.264.AAC.MM-snaw90-(Good quality)







    Code:
    
    General
    Complete name         :WWE.Superstars.1.5.2012.360p.H.264.AAC.MM-snaw90-(Good quality).mp4
    Format                           : MP4
    File size                        : 354 MiB
    Duration                         : 45mn 36s
    
    Video
    
    Format                           : AVC
    Duration                         : 45mn 36s
    Bit rate                         : 937 Kbps
    Width                            : 512 pixels
    Height                           : 384 pixels
    Display aspect ratio             : 4:3
    Frame rate                       : 29.970 fps
    Original frame rate              : 29.000 fps
    Stream size                      : 306 MiB 
    Language                         : English
    
    Audio
    
    Format                           : AAC
    Duration                         : 45mn 36s
    Bit rate                         : 144 Kbps
    Channel(s)                       : 2 channels
    Sampling rate                    : 44.1 KHz
    Stream size                      : 46.7 MiB
    Language                         : English
    
    
    Code:
    
    1 link
    
    http://ul.to/09i5epjz
    
    http://www.fileserve.com/file/fBSNwPj
    
    http://filepost.com/files/2e1acf31/WWE.Superstars.1.5.2012.360p.H.264.AAC.MM-snaw90-(Good_quality).mp4/
    
    http://www.filefactory.com/file/c1f6610/n/WWE_Superstars_1_5_2012_360p_H_264_AAC_MM-snaw90-_Good_quality_mp4
    
    http://www.filedino.com/zdruiiqme2sh
    
    http://bitshare.com/files/ohi0mn9z/WWE.Superstars.1.5.2012.360p.H.264.AAC.MM-snaw90--Good-quality-.mp4.html
    
    

 

 

Posting Permissions

  • You may not post new threads
  • You may not post replies
  • You may not post attachments
  • You may not edit your posts
  •