Results 1 to 1 of 1
  1. #1
    dR Rockers www.desirulez.net
    Join Date
    Aug 2011
    Posts
    5,859

    T

    Cool Jeena Marna Tere Sang [1992]DVDRip Xvid AC3 - 6 @ Dus Release

    Follow us on Social Media









    -----------------------------------------------------------------
    Jeena Marna Tere Sang [1992]DVDRip x264 AC3 - 6 @ Dus Release
    ------------------------------------------------------------------
    HTML Code:
    General
    Complete name : E:\Ripped\NEW\Jeena Marna Tere Sang [1992]DVDRip x264 AC3 - 6 @ Dus Release\Jeena Marna Tere Sang [1992]DVDRip x264 AC3 - 6 @ Dus Release.avi
    Format : AVI
    Format/Info : Audio Video Interleave
    File size : 1.45 GiB
    Duration : 2h 30mn
    Overall bit rate : 1 385 Kbps

    Video
    ID : 0
    Format : MPEG-4 Visual
    Format profile : Advanced [email protected]
    Format settings, BVOP : 2
    Format settings, QPel : No
    Format settings, GMC : No warppoints
    Format settings, Matrix : Default (H.263)
    Codec ID : XVID
    Codec ID/Hint : XviD
    Duration : 2h 30mn
    Bit rate : 1 120 Kbps
    Width : 640 pixels
    Height : 304 pixels
    Display aspect ratio : 2.2:1
    Frame rate : 29.970 fps
    Color space : YUV
    Chroma subsampling : 4:2:0
    Bit depth : 8 bits
    Scan type : Progressive
    Compression mode : Lossy
    Bits/(Pixel*Frame) : 0.192
    Stream size : 1.18 GiB (81%)
    Writing library : XviD 1.2.1 (UTC 2008-12-04)

    Audio
    ID : 1
    Format : AC-3
    Format/Info : Audio Coding 3
    Mode extension : CM (complete main)
    Codec ID : 2000
    Duration : 2h 30mn
    Bit rate mode : Constant
    Bit rate : 256 Kbps
    Channel(s) : 6 channels
    Channel positions : Front: L C R, Side: L R, LFE
    Sampling rate : 48.0 KHz
    Bit depth : 16 bits
    Compression mode : Lossy
    Stream size : 275 MiB (18%)
    Alignment : Aligned on interleaves
    Interleave, duration : 64 ms (1.92 video frames)
    Interleave, preload duration : 192 ms
    Title : VTS_01_1 T80 3_2ch 448Kbps DELAY 0ms_new


















    SINGLE LINK



    Code:
    http://www.filesonic.com/file/IDrQMtO/Jeena Marna Tere Sang [1992]DVDRip x264 AC3 - 6 @ Dus Release.avi
    Code:
    http://www.fileserve.com/file/EkaJwQF/Jeena Marna Tere Sang [1992]DVDRip x264 AC3 - 6 @ Dus Release.avi


    Code:
    http://www.filejungle.com/f/ZaCVqq/Jeena Marna Tere Sang [1992]DVDRip x264 AC3 - 6 @ Dus Release.avi



    450MB LINKS


    Code:
    http://www.filesonic.com/file/CeKNpL5/Jeena Marna Tere Sang [1992]DVDRip x264 AC3 - 6 @ Dus Release.avi.001
    http://www.filesonic.com/file/pZIpoo5/Jeena Marna Tere Sang [1992]DVDRip x264 AC3 - 6 @ Dus Release.avi.002
    http://www.filesonic.com/file/w6LZ7Rc/Jeena Marna Tere Sang [1992]DVDRip x264 AC3 - 6 @ Dus Release.avi.003
    http://www.filesonic.com/file/U87NFZg/Jeena Marna Tere Sang [1992]DVDRip x264 AC3 - 6 @ Dus Release.avi.004
    
    
    
    http://www.fileserve.com/file/4yMN28s/Jeena Marna Tere Sang [1992]DVDRip x264 AC3 - 6 @ Dus Release.avi.001
    http://www.fileserve.com/file/UfCatUu/Jeena Marna Tere Sang [1992]DVDRip x264 AC3 - 6 @ Dus Release.avi.002
    http://www.fileserve.com/file/eDmVKvH/Jeena Marna Tere Sang [1992]DVDRip x264 AC3 - 6 @ Dus Release.avi.003
    http://www.fileserve.com/file/D6nGBUY/Jeena Marna Tere Sang [1992]DVDRip x264 AC3 - 6 @ Dus Release.avi.004
    
    
    
    http://www.filejungle.com/f/FGnEaY/Jeena Marna Tere Sang [1992]DVDRip x264 AC3 - 6 @ Dus Release.avi.001
    http://www.filejungle.com/f/caUH3Y/Jeena Marna Tere Sang [1992]DVDRip x264 AC3 - 6 @ Dus Release.avi.002
    http://www.filejungle.com/f/E7zdzP/Jeena Marna Tere Sang [1992]DVDRip x264 AC3 - 6 @ Dus Release.avi.003
    http://www.filejungle.com/f/KEENpE/Jeena Marna Tere Sang [1992]DVDRip x264 AC3 - 6 @ Dus Release.avi.004

 

 

Posting Permissions

  • You may not post new threads
  • You may not post replies
  • You may not post attachments
  • You may not edit your posts
  •