Results 1 to 2 of 2
  1. #1

    Default 3 Idiots 2009 720 Bluray x264 [Team DS]

    Follow us on Social Media









    Media Information


    General

    Complete Name : 3 Idiots 2009 Blu Ray 720p x264.mkv
    Format : Matroska
    File size : 4.36 GiB
    Duration : 2h 51mn
    Overall bit rate : 3 651 Kbps

    Video

    Format : AVC
    Format/Info : Advanced Video Codec
    Duration : 2h 51mn
    Bit rate : 3 130 Kbps
    Nominal bit rate : 3 195 Kbps
    Width : 1 280 pixels
    Height : 544 pixels
    Display aspect ratio : 2.35:1
    Frame rate : 24.000 fps
    Resolution : 24 bits
    Colorimetry : 4:2:0
    Scan type : Progressive
    Bits/(Pixel*Frame) : 0.187
    Stream size : 3.74 GiB (86%)

    Audio

    Format : AC-3
    Format/Info : Audio Coding 3
    Duration : 2h 51mn
    Bit rate mode : Constant
    Bit rate : 448 Kbps
    Channel(s) : 6 channels
    Channel positions : Front: L C R, Surround: L R, LFE
    Sampling rate : 48.0 KHz
    Stream size : 548 MiB (12%)
    Language : Hindi

    Text #1

    Format : UTF-8
    Codec ID : S_TEXT/UTF8
    Codec ID/Info : UTF-8 Plain Text


    Text #2

    Format : VobSub
    Codec ID : S_VOBSUB
    Codec ID/Info : The same subtitle format used on DVDs
    Language : French


    Screen Shots















    Download



    Code:
    http://www.filejungle.com/f/3ZwWFg/GMH-M-B-03-Leader-3Idiots.part01.rar
    http://www.filejungle.com/f/PD56Yu/GMH-M-B-03-Leader-3Idiots.part01.rev
    http://www.filejungle.com/f/Y3jngn/GMH-M-B-03-Leader-3Idiots.part02.rar
    http://www.filejungle.com/f/YJWK7A/GMH-M-B-03-Leader-3Idiots.part03.rar
    http://www.filejungle.com/f/KyJuQZ/GMH-M-B-03-Leader-3Idiots.part04.rar
    http://www.filejungle.com/f/8C4nUm/GMH-M-B-03-Leader-3Idiots.part05.rar
    http://www.filejungle.com/f/efBqKG/GMH-M-B-03-Leader-3Idiots.part06.rar
    http://www.filejungle.com/f/CbByuh/GMH-M-B-03-Leader-3Idiots.part07.rar
    http://www.filejungle.com/f/CKD5np/GMH-M-B-03-Leader-3Idiots.part08.rar
    http://www.filejungle.com/f/QYyP5p/GMH-M-B-03-Leader-3Idiots.part09.rar
    http://www.filejungle.com/f/XP9SHj/GMH-M-B-03-Leader-3Idiots.part10.rar
    http://www.filejungle.com/f/V4V8tb/GMH-M-B-03-Leader-3Idiots.part11.rar


    Code:
    http://www.fileserve.com/file/mvuWX9U/GMH-M-B-03-Leader-3Idiots.part10.rar
    http://www.fileserve.com/file/H8nHzst/GMH-M-B-03-Leader-3Idiots.part09.rar
    http://www.fileserve.com/file/Qmwr8rM/GMH-M-B-03-Leader-3Idiots.part08.rar
    http://www.fileserve.com/file/qJM3y5a/GMH-M-B-03-Leader-3Idiots.part11.rar
    http://www.fileserve.com/file/Mvtua8x/GMH-M-B-03-Leader-3Idiots.part06.rar
    http://www.fileserve.com/file/KR9mjKz/GMH-M-B-03-Leader-3Idiots.part07.rar
    http://www.fileserve.com/file/RDUd8SN/GMH-M-B-03-Leader-3Idiots.part05.rar
    http://www.fileserve.com/file/kRc689B/GMH-M-B-03-Leader-3Idiots.part04.rar
    http://www.fileserve.com/file/Mpxfysg/GMH-M-B-03-Leader-3Idiots.part02.rar
    http://www.fileserve.com/file/7ZaJSU6/GMH-M-B-03-Leader-3Idiots.part03.rar
    http://www.fileserve.com/file/UYqEVMJ/GMH-M-B-03-Leader-3Idiots.part01.rev
    http://www.fileserve.com/file/UNANHCb/GMH-M-B-03-Leader-3Idiots.part01.rar

    Password



    Leader

  2. #2

    Default

    Part 1, 4 & 9 is not available.

    Reupload.

 

 

Posting Permissions

  • You may not post new threads
  • You may not post replies
  • You may not post attachments
  • You may not edit your posts
  •