Results 1 to 1 of 1
  1. #1
    dR Rockers www.desirulez.net
    Join Date
    Aug 2011
    Posts
    5,859

    T

    Cool Wohti Lai K Jani Aay (2010) - Manual CCE - NTSC -DVDR5 - -=DrC=-

    Follow us on Social Media









    ووھٹی لیکے جانی ایں


    Wohti Lai K Jani Aay (2010) - Manual CCE - NTSC -DVDR5 - Ibraram-=DrC=-













    General Info:




    Code:
    Movie Name : Wohti Lai K Jani Aay (2010)
    Imdb :
    Wikipedia :
    Distributor :
    Size : 4.11 GB
    Ripper : ibraram @ DrC
    Spoken Language : Punjabi
    Text Language: :
    Source : DVD9 @ ispkmyk
    Release Date :
    Run Time : 151 min
    Genre : Action | Crime | Drama
    Director : Syed Noor
    Writers :
    Stars : Shan, Saima, Iftikhar Thakur, Mustafa Qureshi & Raheela Agha
    User Rating :









    [/Code]


    Technical Info:

    Code:
    Format : MPEG-PS

    Overall bit rate mode : Variable
    Overall bit rate : 3 904 Kbps

    Video
    ID : 224 (0xE0)
    Format : MPEG Video
    Format version : Version 2
    Format profile : [email protected]
    Format settings, BVOP : Yes
    Format settings, Matrix : Custom
    Format settings, GOP : M=3, N=18
    Bit rate mode : Variable
    Bit rate : 3 571 Kbps
    Maximum bit rate : 5 538 Kbps
    Width : 720 pixels
    Height : 480 pixels
    Display aspect ratio : 4:3
    Frame rate : 29.970 fps
    Standard : NTS

    Color space : YUV
    Chroma subsampling : 4:2:0
    Bit depth : 8 bits
    Scan type : Progressive
    Scan order : Top Field First
    Compression mode : Lossy
    Bits/(Pixel*Frame) : 0.345
    Stream size : 936 MiB (91%)

    Audio
    ID : 189 (0xBD)-128 (0x80)
    Format : AC-3
    Format/Info : Audio Coding 3
    Mode extension : CM (complete main)
    Muxing mode : DVD-Video
    Bit rate mode : Constant
    Bit rate : 256 Kbps
    Channel(s) : 2 channels
    Channel positions : Front: L R
    Sampling rate : 48.0 KHz
    Bit depth : 16 bits
    Compression mode : Lossy
    Delay relative to video : -265ms
    Stream size : 67.1 MiB (7%)












    Code:
    http://www.filesonic.com/file/zQLZ8zC/Wohti Lai K Jani Aay (2010) - Manual CCE - NTSC -DVDR5 - Ibraram.part1.rar
    http://www.filesonic.com/file/ZNxOCLH/Wohti Lai K Jani Aay (2010) - Manual CCE - NTSC -DVDR5 - Ibraram.part2.rar
    http://www.filesonic.com/file/XzP0ZY5/Wohti Lai K Jani Aay (2010) - Manual CCE - NTSC -DVDR5 - Ibraram.part3.rar
    http://www.filesonic.com/file/kkgv187/Wohti Lai K Jani Aay (2010) - Manual CCE - NTSC -DVDR5 - Ibraram.part4.rar
    http://www.filesonic.com/file/pZBs0P0/Wohti Lai K Jani Aay (2010) - Manual CCE - NTSC -DVDR5 - Ibraram.part5.rar
    Code:
    http://www.fileserve.com/file/WngdYmu/Wohti Lai K Jani Aay (2010) - Manual CCE - NTSC -DVDR5 - Ibraram.part1.rar
    http://www.fileserve.com/file/tVep8rF/Wohti Lai K Jani Aay (2010) - Manual CCE - NTSC -DVDR5 - Ibraram.part2.rar
    http://www.fileserve.com/file/zYggZsR/Wohti Lai K Jani Aay (2010) - Manual CCE - NTSC -DVDR5 - Ibraram.part3.rar
    http://www.fileserve.com/file/aqU2vCC/Wohti Lai K Jani Aay (2010) - Manual CCE - NTSC -DVDR5 - Ibraram.part4.rar
    http://www.fileserve.com/file/JTSca6H/Wohti Lai K Jani Aay (2010) - Manual CCE - NTSC -DVDR5 - Ibraram.part5.rar
    Code:
    http://www.filejungle.com/f/jw6bhg/Wohti Lai K Jani Aay (2010) - Manual CCE - NTSC -DVDR5 - Ibraram.part1.rar
    http://www.filejungle.com/f/Jg7MBQ/Wohti Lai K Jani Aay (2010) - Manual CCE - NTSC -DVDR5 - Ibraram.part2.rar
    http://www.filejungle.com/f/U2zFqd/Wohti Lai K Jani Aay (2010) - Manual CCE - NTSC -DVDR5 - Ibraram.part3.rar
    http://www.filejungle.com/f/eU7VeG/Wohti Lai K Jani Aay (2010) - Manual CCE - NTSC -DVDR5 - Ibraram.part4.rar
    http://www.filejungle.com/f/QFY5Vh/Wohti Lai K Jani Aay (2010) - Manual CCE - NTSC -DVDR5 - Ibraram.part5.rar

 

 

Posting Permissions

  • You may not post new threads
  • You may not post replies
  • You may not post attachments
  • You may not edit your posts
  •