Results 1 to 1 of 1
  1. #1
    Super Member
    Join Date
    May 2011

    Thumbs up Malamaal Weekly [2006] - 1 CD DvDRiP - x264 - [DUS]

    Follow us on Social Media

    Malamaal Weekly (2006)

    Malamaal Weekly (2006) - 1 CD Dvdrip - x264 - snaink - DUS

    Ripper                           : snaink
    Source                           : DVD9 @ DUS Warehouse
    Format                           : Matroska
    File size                        : 697 MiB
    Duration                         : 2h 17mn
    Overall bit rate                 : 711 Kbps
    Encoded date                     : UTC 2010-11-15 09:09:11
    Format                           : AVC
    Format/Info                      : Advanced Video Codec
    Format profile                   : [email protected]
    Format settings, CABAC           : Yes
    Format settings, ReFrames        : 4 frames
    Muxing mode                      : Container [email protected]
    Codec ID                         : V_MPEG4/ISO/AVC
    Duration                         : 2h 17mn
    Bit rate                         : 581 Kbps
    Width                            : 688 pixels
    Height                           : 304 pixels
    Display aspect ratio             : 2.25:1
    Frame rate                       : 23.976 fps
    Color space                      : YUV
    Chroma subsampling               : 4:2:0
    Bit depth                        : 8 bits
    Scan type                        : Progressive
    Bits/(Pixel*Frame)               : 0.116
    Stream size                      : 558 MiB (80%)
    Writing library                  : x264 core 98 r1649 c54c47d
    Format                           : AC-3
    Format/Info                      : Audio Coding 3
    Mode extension                   : CM (complete main)
    Codec ID                         : A_AC3
    Duration                         : 2h 17mn
    Bit rate mode                    : Constant
    Bit rate                         : 128 Kbps
    Channel(s)                       : 2 channels
    Channel positions                : Front: L R
    Sampling rate                    : 48.0 KHz
    Stream size                      : 126 MiB (18%)

    Subtitles: None

    Paresh Rawal ... Lilaram 'Lila'
    Om Puri ... Balwant 'Balu'
    Ritesh Deshmukh ... Kanhaiya - Chokhey's son
    Reema Sen ... Sukhmani 'Sukhi'
    Rajpal Yadav ... Baj 'Bajey' Bahadur
    Asrani ... Chokhey
    Shakti Kapoor ... Joseph
    Arbaaz Khan ... Jayesh Agarwal
    Innocent ... Anthony Joseph Fernandes
    Sudha Chandran ... Thakurain
    Rasika Joshi ... Mary
    Sona Nair
    Bineesh Kodiyeri

    Laholi is a small village in India whose inhabitants are poor, simple-minded, and are used to their lives being controlled by the dictatorial Landlord, Thakurain, and her brother, Baj Bahadur. Although Lilaram is the one with the highest educational qualifications, he is unable to secure any job. He decides to make a living selling lottery tickets, especially the Delhi-based Malamaal Weekly, but is barely able to make ends meet. Then one day he finds out that one of his lottery tickets is a winner. He concocts a scheme with his wife, which involves pawning her pet goat with the Thakurain, getting people together for a feast, so that he can get their tickets back - all in vain. Then he finds out that the only one who was absent was the town drunk, Anthony Fernandes. When he goes to Anthony's house he finds him dead, happily clutching his winning lottery ticket. When Lilaram tries to take the ticket from Anthony's hand, another villager, Balwant, happens to come by, both of them compromise and decide to share the one crore prize. They decide to toss the body in the river. Then Kanhaiya, who wants to marry Lilaram's daughter, Sukhmani, comes by, he overhears, and is also made a partner. Kanhaiya is asked to dispose off the body, which he does. The next day when Lilaram telephones the lottery office, he is told that Anthony had already phoned in his winning number. Lilaram, Kanhaiya, and Balwant rush to get Anthony's body back, which they find perched on a tree, as Kanhaiya had not done a good job. They take the body back and it is there that they are met by Anthony's estranged sister, Mary, who also knew about the winning ticket. After a few clarifications, Mary, her husband, and her child are also made partners. Then the sky literally falls on them when they find several village businessmen, to whom Anthony owed money, assembled in front of the house to collect their dues. They too are inducted as partners and then begins the trial of convincing the Lottery Inspector, Jayesh Agarwal, that Anthony is alive. Watch hilarious chaos unfold when Baj Bahadur, who also wants to marry Sukhmani, finds out about the winning lottery ticket.

    imdb Link: Malamaal Weekly (2006) - IMDb

    Note: Special Thanks to Du$ k@ $h3r

    snaink [DUS]

    Download Links:-
    You are Allowed to Share My Post and My Links anywhere you want 2



Posting Permissions

  • You may not post new threads
  • You may not post replies
  • You may not post attachments
  • You may not edit your posts