Results 1 to 1 of 1
  1. #1

    Default Aisha 2010 720p Bluray x264 DTS [Team DS]

    Follow us on Social Media









    Media Information






    General



    Complete Name : Aisha 2010 Blu Ray 720p x264 DTS.mkv

    Format : Matroska

    File size : 4.37 GiB

    Duration : 2h 11mn

    Overall bit rate : 4 747 Kbps





    Video



    Format : AVC

    Format/Info : Advanced Video Codec

    Duration : 2h 11mn

    Bit rate : 3 143 Kbps

    Nominal bit rate : 3 234 Kbps

    Width : 1 280 pixels

    Height : 544 pixels

    Display aspect ratio : 2.35:1

    Frame rate : 24.000 fps

    Resolution : 24 bits

    Colorimetry : 4:2:0

    Scan type : Progressive

    Bits/(Pixel*Frame) : 0.188

    Stream size : 2.89 GiB (66%)





    Audio



    Format : DTS

    Format/Info : Digital Theater Systems

    Duration : 2h 11mn

    Bit rate mode : Constant

    Bit rate : 1 510 Kbps

    Channel(s) : 6 channels

    Channel positions : Front: L C R, Surround: L R, LFE

    Sampling rate : 48.0 KHz

    Resolution : 24 bits

    Stream size : 1.39 GiB (32%)

    Language : Hindi



    Text



    Format : UTF-8

    Codec ID : S_TEXT/UTF8

    Codec ID/Info : UTF-8 Plain Text








    Screens























    Download





    Code:
    
    http://www.filejungle.com/f/pYEzY3/GMH-M-B-04-Leader-Aisha.part01.rar
    http://www.filejungle.com/f/rTFYEA/GMH-M-B-04-Leader-Aisha.part01.rev
    http://www.filejungle.com/f/ZJTuGh/GMH-M-B-04-Leader-Aisha.part02.rar
    http://www.filejungle.com/f/ENh4JT/GMH-M-B-04-Leader-Aisha.part03.rar
    http://www.filejungle.com/f/nTbgAk/GMH-M-B-04-Leader-Aisha.part04.rar
    http://www.filejungle.com/f/fTbK5w/GMH-M-B-04-Leader-Aisha.part05.rar
    http://www.filejungle.com/f/32uqTe/GMH-M-B-04-Leader-Aisha.part06.rar
    http://www.filejungle.com/f/Wzbkbe/GMH-M-B-04-Leader-Aisha.part07.rar
    http://www.filejungle.com/f/ajh2r2/GMH-M-B-04-Leader-Aisha.part08.rar
    http://www.filejungle.com/f/uEgmz7/GMH-M-B-04-Leader-Aisha.part09.rar
    http://www.filejungle.com/f/C3dwzb/GMH-M-B-04-Leader-Aisha.part10.rar




    Code:
    
    http://www.fileserve.com/file/pJnaA2Z/GMH-M-B-04-Leader-Aisha.part10.rar
    http://www.fileserve.com/file/zGD4Vqm/GMH-M-B-04-Leader-Aisha.part08.rar
    http://www.fileserve.com/file/QthKkCz/GMH-M-B-04-Leader-Aisha.part09.rar
    http://www.fileserve.com/file/gQeTFnr/GMH-M-B-04-Leader-Aisha.part06.rar
    http://www.fileserve.com/file/kz33nx9/GMH-M-B-04-Leader-Aisha.part07.rar
    http://www.fileserve.com/file/fvgdgxD/GMH-M-B-04-Leader-Aisha.part05.rar
    http://www.fileserve.com/file/jp5QUFw/GMH-M-B-04-Leader-Aisha.part04.rar
    http://www.fileserve.com/file/48fkjus/GMH-M-B-04-Leader-Aisha.part03.rar
    http://www.fileserve.com/file/Gzp46YZ/GMH-M-B-04-Leader-Aisha.part02.rar
    http://www.fileserve.com/file/32YXcaB/GMH-M-B-04-Leader-Aisha.part01.rar
    http://www.fileserve.com/file/jrm4hMj/GMH-M-B-04-Leader-Aisha.part01.rev




    Password






    Leader





 

 

Posting Permissions

  • You may not post new threads
  • You may not post replies
  • You may not post attachments
  • You may not edit your posts
  •