Results 1 to 1 of 1
  1. #1

    Thumbs up Ra.One - 2011 - 1080p - Upscaled - DVDRip - x264 - AC3 - 5.1 - E.Subs - [TEAM RMR]

    Follow us on Social Media






    General
    Unique ID : 248586260088520788507910654607940170245 (0xBB03F8E28B00E1A5AFD27C5412E4B205)
    Complete name : Ra.One.2011.1080p.Upscaled.DVDRip.x264.AC3.Subs.RMR.mkv
    Format : Matroska
    Format version : Version 2
    File size : 4.86 GiB
    Duration : 2h 36mn
    Overall bit rate mode : Variable
    Overall bit rate : 4 464 Kbps
    Encoded date : UTC 2011-12-29 17:45:33
    Writing application : mkvmerge v4.9.1 ('Ich will') built on Jul 11 2011 23:53:15
    Writing library : libebml v1.2.1 + libmatroska v1.1.1

    Video
    ID : 1
    Format : AVC
    Format/Info : Advanced Video Codec
    Format profile : [email protected]
    Format settings, CABAC : Yes
    Format settings, ReFrames : 3 frames
    Codec ID : V_MPEG4/ISO/AVC
    Duration : 2h 36mn
    Bit rate mode : Variable
    Bit rate : 3 563 Kbps
    Maximum bit rate : 40.0 Mbps
    Width : 1 920 pixels
    Height : 816 pixels
    Display aspect ratio : 2.35:1
    Frame rate : 23.976 fps
    Color space : YUV
    Chroma subsampling : 4:2:0
    Bit depth : 8 bits
    Scan type : Progressive
    Bits/(Pixel*Frame) : 0.095
    Stream size : 3.79 GiB (78%)
    Title : [ Ra.One ]
    Writing library : x264 core 116 r2074 2641b9e
    Encoding settings : cabac=1 / ref=4 / deblock=1:0:0 / analyse=0x3:0x113 / me=hex / subme=7 / psy=1 / psy_rd=1.00:0.00 / mixed_ref=1 / me_range=16 / chroma_me=1 / trellis=1 / 8x8dct=1 / cqm=0 / deadzone=21,11 / fast_pskip=1 / chroma_qp_offset=-2 / threads=1 / sliced_threads=0 / slices=4 / nr=0 / decimate=1 / interlaced=0 / bluray_compat=1 / constrained_intra=0 / bframes=3 / b_pyramid=1 / b_adapt=1 / b_bias=0 / direct=1 / weightb=1 / open_gop=1 / weightp=0 / keyint=24 / keyint_min=2 / scenecut=40 / intra_refresh=0 / rc_lookahead=24 / rc=2pass / mbtree=1 / bitrate=3563 / ratetol=1.0 / qcomp=0.60 / qpmin=0 / qpmax=51 / qpstep=4 / cplxblur=20.0 / qblur=0.5 / vbv_maxrate=40000 / vbv_bufsize=30000 / nal_hrd=vbr / ip_ratio=1.40 / aq=1:1.00
    Language : English
    Color primaries : BT.709-5, BT.1361, IEC 61966-2-4, SMPTE RP177
    Transfer characteristics : BT.709-5, BT.1361
    Matrix coefficients : BT.709-5, BT.1361, IEC 61966-2-4 709, SMPTE RP177

    Audio #1
    ID : 2
    Format : AC-3
    Format/Info : Audio Coding 3
    Mode extension : CM (complete main)
    Codec ID : A_AC3
    Duration : 2h 36mn
    Bit rate mode : Constant
    Bit rate : 448 Kbps
    Channel(s) : 6 channels
    Channel positions : Front: L C R, Side: L R, LFE
    Sampling rate : 48.0 KHz
    Bit depth : 16 bits
    Compression mode : Lossy
    Stream size : 500 MiB (10%)
    Title : [ Ra.One ]
    Language : Hindi

    Audio #2
    ID : 3
    Format : AC-3
    Format/Info : Audio Coding 3
    Mode extension : CM (complete main)
    Codec ID : A_AC3
    Duration : 2h 36mn
    Bit rate mode : Constant
    Bit rate : 448 Kbps
    Channel(s) : 6 channels
    Channel positions : Front: L C R, Side: L R, LFE
    Sampling rate : 48.0 KHz
    Bit depth : 16 bits
    Compression mode : Lossy
    Stream size : 500 MiB (10%)
    Title : [ Ra.One ] Tamil

    Text #1
    ID : 4
    Format : VobSub
    Muxing mode : zlib
    Codec ID : S_VOBSUB
    Codec ID/Info : The same subtitle format used on DVDs
    Title : [ Ra.One ]
    Language : English

    Text #2
    ID : 5
    Format : VobSub
    Muxing mode : zlib
    Codec ID : S_VOBSUB
    Codec ID/Info : The same subtitle format used on DVDs
    Title : [ Ra.One ]
    Language : Arabic












    700MB Parts | INTERCHANGEABLE LINKS | NO PASSWORD


    Code:
    http://www.filesonic.com/file/ZNZizEO/AMP-Ra.One.2011.1080p.Upscaled.DVDRip.x264.AC3.Subs.RMR.mkv.001
    http://www.filesonic.com/file/w6jvnXw/AMP-Ra.One.2011.1080p.Upscaled.DVDRip.x264.AC3.Subs.RMR.mkv.002
    http://www.filesonic.com/file/ZNZigAZ/AMP-Ra.One.2011.1080p.Upscaled.DVDRip.x264.AC3.Subs.RMR.mkv.003
    http://www.filesonic.com/file/VqW9gmV/AMP-Ra.One.2011.1080p.Upscaled.DVDRip.x264.AC3.Subs.RMR.mkv.004
    http://www.filesonic.com/file/m45SIAP/AMP-Ra.One.2011.1080p.Upscaled.DVDRip.x264.AC3.Subs.RMR.mkv.005
    http://www.filesonic.com/file/vZLihn5/AMP-Ra.One.2011.1080p.Upscaled.DVDRip.x264.AC3.Subs.RMR.mkv.006
    http://www.filesonic.com/file/Xz6RNQ5/AMP-Ra.One.2011.1080p.Upscaled.DVDRip.x264.AC3.Subs.RMR.mkv.007
    http://www.filesonic.com/file/IDdlaaY/AMP-Ra.One.2011.1080p.Upscaled.DVDRip.x264.AC3.Subs.RMR.mkv.008
    http://www.filesonic.com/file/VqW9xx2/AMP-Ra.One.2011.1080p.Upscaled.DVDRip.x264.AC3.Subs.RMR1.idx
    http://www.filesonic.com/file/T7PJUUg/AMP-Ra.One.2011.1080p.Upscaled.DVDRip.x264.AC3.Subs.RMR1.sub
    http://www.filesonic.com/file/JHPwvv3/AMP-Ra.One.2011.1080p.Upscaled.DVDRip.x264.AC3.Subs.RMR2.idx
    http://www.filesonic.com/file/qy3CzzP/AMP-Ra.One.2011.1080p.Upscaled.DVDRip.x264.AC3.Subs.RMR2.sub

    Code:
    http://www.fileserve.com/file/RNKbx2A/AMP-Ra.One.2011.1080p.Upscaled.DVDRip.x264.AC3.Subs.RMR.mkv.001
    http://www.fileserve.com/file/578aZzk/AMP-Ra.One.2011.1080p.Upscaled.DVDRip.x264.AC3.Subs.RMR.mkv.002
    http://www.fileserve.com/file/tcYnkU5/AMP-Ra.One.2011.1080p.Upscaled.DVDRip.x264.AC3.Subs.RMR.mkv.003
    http://www.fileserve.com/file/FHND2JM/AMP-Ra.One.2011.1080p.Upscaled.DVDRip.x264.AC3.Subs.RMR.mkv.004
    http://www.fileserve.com/file/86RNkjv/AMP-Ra.One.2011.1080p.Upscaled.DVDRip.x264.AC3.Subs.RMR.mkv.005
    http://www.fileserve.com/file/YzCXMrb/AMP-Ra.One.2011.1080p.Upscaled.DVDRip.x264.AC3.Subs.RMR.mkv.006
    http://www.fileserve.com/file/TpWEqzA/AMP-Ra.One.2011.1080p.Upscaled.DVDRip.x264.AC3.Subs.RMR.mkv.007
    http://www.fileserve.com/file/9aXX8Fc/AMP-Ra.One.2011.1080p.Upscaled.DVDRip.x264.AC3.Subs.RMR.mkv.008
    http://www.fileserve.com/file/EhhxYM8/AMP-Ra.One.2011.1080p.Upscaled.DVDRip.x264.AC3.Subs.RMR1.idx
    http://www.fileserve.com/file/kM8RPN2/AMP-Ra.One.2011.1080p.Upscaled.DVDRip.x264.AC3.Subs.RMR1.sub
    http://www.fileserve.com/file/emKMhjV/AMP-Ra.One.2011.1080p.Upscaled.DVDRip.x264.AC3.Subs.RMR2.idx
    http://www.fileserve.com/file/gSkjT9u/AMP-Ra.One.2011.1080p.Upscaled.DVDRip.x264.AC3.Subs.RMR2.sub

    Code:
    http://www.netload.in/dateij68t4CcyZh/AMP-Ra.One.2011.1080p.Upscaled.DVDRip.x264.AC3.Subs.RMR.mkv.001.htm
    http://www.netload.in/datei3mGfHU854e/AMP-Ra.One.2011.1080p.Upscaled.DVDRip.x264.AC3.Subs.RMR.mkv.002.htm
    http://www.netload.in/dateixG9zMfC4Bw/AMP-Ra.One.2011.1080p.Upscaled.DVDRip.x264.AC3.Subs.RMR.mkv.003.htm
    http://www.netload.in/datei74msG0ba6n/AMP-Ra.One.2011.1080p.Upscaled.DVDRip.x264.AC3.Subs.RMR.mkv.004.htm
    http://www.netload.in/dateiZuJJRdA4Ga/AMP-Ra.One.2011.1080p.Upscaled.DVDRip.x264.AC3.Subs.RMR.mkv.005.htm
    http://www.netload.in/dateiXl7U1L9Fqf/AMP-Ra.One.2011.1080p.Upscaled.DVDRip.x264.AC3.Subs.RMR.mkv.006.htm
    http://www.netload.in/dateigWih5C7VJr/AMP-Ra.One.2011.1080p.Upscaled.DVDRip.x264.AC3.Subs.RMR.mkv.007.htm
    http://www.netload.in/dateiSTAPfH2eXd/AMP-Ra.One.2011.1080p.Upscaled.DVDRip.x264.AC3.Subs.RMR.mkv.008.htm
    http://www.netload.in/dateiZ6f17j17wP/AMP-Ra.One.2011.1080p.Upscaled.DVDRip.x264.AC3.Subs.RMR1.idx.htm
    http://www.netload.in/datei0IJAaDshSY/AMP-Ra.One.2011.1080p.Upscaled.DVDRip.x264.AC3.Subs.RMR1.sub.htm
    http://www.netload.in/dateiCq4xWkKJNK/AMP-Ra.One.2011.1080p.Upscaled.DVDRip.x264.AC3.Subs.RMR2.idx.htm
    http://www.netload.in/dateiYOUx5D4AsU/AMP-Ra.One.2011.1080p.Upscaled.DVDRip.x264.AC3.Subs.RMR2.sub.htm
    Man is still the most extraordinary computer of all.




 

 

Posting Permissions

  • You may not post new threads
  • You may not post replies
  • You may not post attachments
  • You may not edit your posts
  •