Results 1 to 1 of 1
  1. #1
    dR Rockers www.desirulez.net
    Join Date
    Aug 2011
    Posts
    5,859

    T

    Cool Apna Sapna Money Money [2006] - 1.45GB - DVDRip - Xvid - AC3 - 6 @ Dus Release

    Follow us on Social Media









    -----------------------------------------------------------------
    Apna Sapna Money Money [2006] DVDRip Xvid AC3 - 6 @ Dus Release
    ------------------------------------------------------------------
    HTML Code:
    General
    Complete name : E:\Ripped\NEW\Apna Sapna Money Money [2006] DVDRip Xvid AC3 - 6 @ Dus Release\Apna Sapna Money Money [2006] DVDRip Xvid AC3 - 6 @ Dus Release.avi
    Format : AVI
    Format/Info : Audio Video Interleave
    File size : 1.45 GiB
    Duration : 2h 18mn
    Overall bit rate : 1 506 Kbps

    Video
    ID : 0
    Format : MPEG-4 Visual
    Format profile : Advanced [email protected]
    Format settings, BVOP : 2
    Format settings, QPel : No
    Format settings, GMC : No warppoints
    Format settings, Matrix : Default (H.263)
    Codec ID : XVID
    Codec ID/Hint : XviD
    Duration : 2h 18mn
    Bit rate : 1 242 Kbps
    Width : 640 pixels
    Height : 304 pixels
    Display aspect ratio : 2.2:1
    Frame rate : 23.976 fps
    Color space : YUV
    Chroma subsampling : 4:2:0
    Bit depth : 8 bits
    Scan type : Progressive
    Compression mode : Lossy
    Bits/(Pixel*Frame) : 0.266
    Stream size : 1.20 GiB (82%)
    Writing library : XviD 1.2.1 (UTC 2008-12-04)

    Audio
    ID : 1
    Format : AC-3
    Format/Info : Audio Coding 3
    Mode extension : CM (complete main)
    Codec ID : 2000
    Duration : 2h 18mn
    Bit rate mode : Constant
    Bit rate : 256 Kbps
    Channel(s) : 6 channels
    Channel positions : Front: L C R, Side: L R, LFE
    Sampling rate : 48.0 KHz
    Bit depth : 16 bits
    Compression mode : Lossy
    Stream size : 253 MiB (17%)
    Alignment : Aligned on interleaves
    Interleave, duration : 64 ms (1.53 video frames)
    Interleave, preload duration : 192 ms

    Title : VTS_01_1 T80 3_2ch 448Kbps DELAY 0ms_new











    SINGLE LINK

    Code:
    http://www.filesonic.com/file/boXg42B/Apna Sapna Money Money [2006] DVDRip Xvid AC3 - 6 @ Dus Release.avi
    Code:
    http://www.fileserve.com/file/gfmDfRR/Apna Sapna Money Money [2006] DVDRip Xvid AC3 - 6 @ Dus Release.avi
    Code:
    http://www.filejungle.com/f/WaUn56/Apna Sapna Money Money [2006] DVDRip Xvid AC3 - 6 @ Dus Release.avi


    450MB LINKS



    Code:
    http://www.filesonic.com/file/QN6HmpU/Apna Sapna Money Money [2006] DVDRip Xvid AC3 - 6 @ Dus Release.avi.001
    http://www.filesonic.com/file/l9IgBJc/Apna Sapna Money Money [2006] DVDRip Xvid AC3 - 6 @ Dus Release.avi.002
    http://www.filesonic.com/file/boXgoIT/Apna Sapna Money Money [2006] DVDRip Xvid AC3 - 6 @ Dus Release.avi.003
    http://www.filesonic.com/file/fYS6rr2/Apna Sapna Money Money [2006] DVDRip Xvid AC3 - 6 @ Dus Release.avi.004
    
    
    
    http://www.fileserve.com/file/ZFYWDJX/Apna Sapna Money Money [2006] DVDRip Xvid AC3 - 6 @ Dus Release.avi.001
    http://www.fileserve.com/file/d4wxPsE/Apna Sapna Money Money [2006] DVDRip Xvid AC3 - 6 @ Dus Release.avi.002
    http://www.fileserve.com/file/w3NncFJ/Apna Sapna Money Money [2006] DVDRip Xvid AC3 - 6 @ Dus Release.avi.003
    http://www.fileserve.com/file/zuxVBxj/Apna Sapna Money Money [2006] DVDRip Xvid AC3 - 6 @ Dus Release.avi.004
    
    
    
    http://www.filejungle.com/f/pEgPty/Apna Sapna Money Money [2006] DVDRip Xvid AC3 - 6 @ Dus Release.avi.001
    http://www.filejungle.com/f/hGenW6/Apna Sapna Money Money [2006] DVDRip Xvid AC3 - 6 @ Dus Release.avi.002
    http://www.filejungle.com/f/eNQ4Ve/Apna Sapna Money Money [2006] DVDRip Xvid AC3 - 6 @ Dus Release.avi.003
    http://www.filejungle.com/f/AQAqAY/Apna Sapna Money Money [2006] DVDRip Xvid AC3 - 6 @ Dus Release.avi.004

 

 

Posting Permissions

  • You may not post new threads
  • You may not post replies
  • You may not post attachments
  • You may not edit your posts
  •