Results 1 to 1 of 1
  1. #1
    dR Rockers www.desirulez.net
    Join Date
    Aug 2011
    Posts
    5,859

    T

    Cool Aatish - Feel The Fire (1994) - 1.45GB - DVDRip - XviD - Ac3 - 6 @ Dus Release

    Follow us on Social Media









    -----------------------------------------------------------------
    Aatish - Feel The Fire (1994) DVDRip Xvid Ac3 - 6 @ Dus Release
    ------------------------------------------------------------------
    HTML Code:
    General
    Complete name : E:\Ripped\NEW\Aatish - Feel The Fire (1994) DVDRip Xvid Ac3 - 6 @ Dus Release\Aatish - Feel The Fire (1994) DVDRip Xvid Ac3 - 6 @ Dus Release.avi
    Format : AVI
    Format/Info : Audio Video Interleave
    File size : 1.45 GiB
    Duration : 2h 49mn
    Overall bit rate : 1 229 Kbps

    Video
    ID : 0
    Format : MPEG-4 Visual
    Format profile : Advanced [email protected]
    Format settings, BVOP : 2
    Format settings, QPel : No
    Format settings, GMC : No warppoints
    Format settings, Matrix : Default (H.263)
    Codec ID : XVID
    Codec ID/Hint : XviD
    Duration : 2h 49mn
    Bit rate : 965 Kbps
    Width : 672 pixels
    Height : 304 pixels
    Display aspect ratio : 2.2:1
    Frame rate : 23.976 fps
    Color space : YUV
    Chroma subsampling : 4:2:0
    Bit depth : 8 bits
    Scan type : Progressive
    Compression mode : Lossy
    Bits/(Pixel*Frame) : 0.197
    Stream size : 1.14 GiB (79%)
    Writing library : XviD 1.2.1 (UTC 2008-12-04)

    Audio
    ID : 1
    Format : AC-3
    Format/Info : Audio Coding 3
    Mode extension : CM (complete main)
    Codec ID : 2000
    Duration : 2h 49mn
    Bit rate mode : Constant
    Bit rate : 256 Kbps
    Channel(s) : 2 channels
    Channel positions : Front: L R
    Sampling rate : 48.0 KHz
    Bit depth : 16 bits
    Compression mode : Lossy
    Stream size : 310 MiB (21%)
    Alignment : Aligned on interleaves
    Interleave, duration : 64 ms (1.53 video frames)
    Interleave, preload duration : 192 ms
    Title : VTS_01_1 T80 2_0ch 224Kbps DELAY 0ms_new













    SINGLE LINK

    Code:
    http://www.filesonic.com/file/oQRhYZm/Aatish - Feel The Fire (1994) DVDRip Xvid Ac3 - 6 @ Dus Release.avi
    Code:
    http://www.fileserve.com/file/S4pDNWK/Aatish - Feel The Fire (1994) DVDRip Xvid Ac3 - 6 @ Dus Release.avi
    Code:
    http://www.filejungle.com/f/QdzRHD/Aatish - Feel The Fire (1994) DVDRip Xvid Ac3 - 6 @ Dus Release.avi

    450MB LINKS


    Code:
    http://www.filesonic.com/file/gfUamPm/Aatish - Feel The Fire (1994) DVDRip Xvid Ac3 - 6 @ Dus Release.avi.001
    http://www.filesonic.com/file/jCfqjik/Aatish - Feel The Fire (1994) DVDRip Xvid Ac3 - 6 @ Dus Release.avi.002
    http://www.filesonic.com/file/RvbrKYM/Aatish - Feel The Fire (1994) DVDRip Xvid Ac3 - 6 @ Dus Release.avi.003
    http://www.filesonic.com/file/YDopuD7/Aatish - Feel The Fire (1994) DVDRip Xvid Ac3 - 6 @ Dus Release.avi.004
    
    
    
    http://www.fileserve.com/file/y7wXjCr/Aatish - Feel The Fire (1994) DVDRip Xvid Ac3 - 6 @ Dus Release.avi.001
    http://www.fileserve.com/file/5ZfEV6S/Aatish - Feel The Fire (1994) DVDRip Xvid Ac3 - 6 @ Dus Release.avi.002
    http://www.fileserve.com/file/mFN6XrC/Aatish - Feel The Fire (1994) DVDRip Xvid Ac3 - 6 @ Dus Release.avi.003
    http://www.fileserve.com/file/rBdjKvX/Aatish - Feel The Fire (1994) DVDRip Xvid Ac3 - 6 @ Dus Release.avi.004
    
    
    
    http://www.filejungle.com/f/hsEWYp/Aatish - Feel The Fire (1994) DVDRip Xvid Ac3 - 6 @ Dus Release.avi.001
    http://www.filejungle.com/f/FeYkJk/Aatish - Feel The Fire (1994) DVDRip Xvid Ac3 - 6 @ Dus Release.avi.002
    http://www.filejungle.com/f/jUHKbY/Aatish - Feel The Fire (1994) DVDRip Xvid Ac3 - 6 @ Dus Release.avi.003
    http://www.filejungle.com/f/G84Z77/Aatish - Feel The Fire (1994) DVDRip Xvid Ac3 - 6 @ Dus Release.avi.004

 

 

Posting Permissions

  • You may not post new threads
  • You may not post replies
  • You may not post attachments
  • You may not edit your posts
  •