Results 1 to 1 of 1
  1. #1
    dR Rockers www.desirulez.net
    Join Date
    Aug 2011
    Posts
    5,859

    T

    Cool Daraar (1996) - 2GB - DVDRip - {DUS}

    Follow us on Social Media













    Daraar (1996) Code:
    Format : AVI
    Format/Info : Audio Video Interleave
    Format profile : OpenDML
    File size : 1.99 GiB
    Duration : 2h 48mn
    Overall bit rate mode : Variable
    Overall bit rate : 1 697 Kbps
    Writing application : VirtualDubMod 1.5.4.1 (build 2178/release)
    Writing library : VirtualDubMod build 2178/release

    Video
    ID : 0
    Format : MPEG-4 Visual
    Format profile : Advanced [email protected]
    Format settings, BVOP : 1
    Format settings, QPel : No
    Format settings, GMC : No warppoints
    Format settings, Matrix : Custom
    Codec ID : XVID
    Codec ID/Hint : XviD
    Duration : 2h 48mn
    Bit rate : 1 574 Kbps
    Width : 608 pixels
    Height : 432 pixels
    Display aspect ratio : 1.407
    Frame rate : 29.970 fps
    Color space : YUV
    Chroma subsampling : 4:2:0
    Bit depth : 8 bits
    Scan type : Progressive
    Compression mode : Lossy
    Bits/(Pixel*Frame) : 0.200
    Stream size : 1.85 GiB (93%)
    Writing library : XviD 1.2.1 (UTC 2008-12-04)

    Audio
    ID : 1
    Format : MPEG Audio
    Format version : Version 1
    Format profile : Layer 3
    Mode : Joint stereo
    Mode extension : MS Stereo
    Codec ID : 55
    Codec ID/Hint : MP3
    Duration : 2h 48mn
    Bit rate mode : Variable
    Bit rate : 106 Kbps
    Channel(s) : 2 channels
    Sampling rate : 44.1 KHz
    Compression mode : Lossy
    Stream size : 127 MiB (6%)
    Alignment : Aligned on interleaves
    Interleave, duration : 26 ms (0.78 video frame)
    Interleave, preload duration : 552 ms
    Please save your ratio by using this external sample and don't download the SAMPLE which is in the TORRENT
    Download ttyuhgf.avi from Sendspace.com - send big files the easy way








    SINGLE LINK

    Code:
    http://www.filesonic.com/file/JH2XJRk/Daraar.avi
    Code:
    http://www.fileserve.com/file/Kukrp82/Daraar.avi
    Code:
    http://www.filejungle.com/f/Bz2jrD/Daraar.avi

    450MB LINKS



    Code:
    http://www.filesonic.com/file/T7Or3Hy/Daraar.avi.001
    http://www.filesonic.com/file/e95lrn2/Daraar.avi.002
    http://www.filesonic.com/file/Kk9DzLx/Daraar.avi.003
    http://www.filesonic.com/file/tPkliuu/Daraar.avi.004
    http://www.filesonic.com/file/u0xG8QY/Daraar.avi.005
    
    
    http://www.fileserve.com/file/6YHNEA3/Daraar.avi.001
    http://www.fileserve.com/file/PcCXh8t/Daraar.avi.002
    http://www.fileserve.com/file/84pRxu6/Daraar.avi.003
    http://www.fileserve.com/file/pZftwWg/Daraar.avi.004
    http://www.fileserve.com/file/8e8DBfX/Daraar.avi.005
    
    
    
    http://www.filejungle.com/f/bzxXBG/Daraar.avi.001
    http://www.filejungle.com/f/CNGRqR/Daraar.avi.002
    http://www.filejungle.com/f/jvawz3/Daraar.avi.003
    http://www.filejungle.com/f/MJkTQr/Daraar.avi.004
    http://www.filejungle.com/f/X79vee/Daraar.avi.005

 

 

Posting Permissions

  • You may not post new threads
  • You may not post replies
  • You may not post attachments
  • You may not edit your posts
  •