Results 1 to 1 of 1
  1. #1
    dR Rockers www.desirulez.net
    Join Date
    Apr 2011
    Location
    desirulez.net
    Posts
    192

    T

    Default Telefilm - Tempu 2010.VCDRip.x264.AC-3.Ex.By.MMB

    Follow us on Social Media







    Telefilm - Tempu 2010.VCDRip.x264.AC-3.Ex.By.MMB













    General
    Complete name : Tempu 2010.VCDRip.x264.AC-3.Ex.By.MMB.mkv
    Format : Matroska
    File size : 174 MiB
    Duration : 45mn 6s
    Overall bit rate : 539 Kbps
    Encoded date : UTC 2011-12-24 16:44:53
    Writing application : mkvmerge v5.0.1 ('Es ist Sommer') built on Oct 9 2011 11:55:43
    Writing library : libebml v1.2.2 + libmatroska v1.3.0

    Video
    ID : 1
    Format : AVC
    Format/Info : Advanced Video Codec
    Format profile : [email protected]
    Format settings, CABAC : Yes
    Format settings, ReFrames : 4 frames
    Format settings, GOP : M=3, N=4
    Muxing mode : Container [email protected]
    Codec ID : V_MPEG4/ISO/AVC
    Duration : 45mn 6s
    Bit rate : 474 Kbps
    Width : 720 pixels
    Height : 352 pixels
    Display aspect ratio : 2.045
    Frame rate : 25.000 fps
    Color space : YUV
    Chroma subsampling : 4:2:0
    Bit depth : 8 bits
    Scan type : Progressive
    Bits/(Pixel*Frame) : 0.075
    Stream size : 150 MiB (86%)
    Writing library : x264 core 116 r2074 2641b9e
    Audio
    ID : 2
    Format : AC-3
    Format/Info : Audio Coding 3
    Mode extension : CM (complete main)
    Muxing mode : Header stripping
    Codec ID : A_AC3
    Duration : 45mn 6s
    Bit rate mode : Constant
    Bit rate : 64.0 Kbps
    Channel(s) : 2 channels
    Channel positions : Front: L R
    Sampling rate : 48.0 KHz
    Bit depth : 16 bits
    Stream size : 20.6 MiB (12%)


    SINGLELINKS


    Code:
    http://www.filesonic.com/file/syAPcIY/Telefilm_-_Tempu_2010.VCDRip.x264.AC-3.Ex.By.MMB.mkv
    http://www.filejungle.com/f/RrZNmQ/Telefilm_-_Tempu_2010.VCDRip.x264.AC-3.Ex.By.MMB.mkv
    http://www.fileserve.com/file/6FBcC3b/Telefilm_-_Tempu_2010.VCDRip.x264.AC-3.Ex.By.MMB.mkv
    Exclusive ReleaseR

 

 

Posting Permissions

  • You may not post new threads
  • You may not post replies
  • You may not post attachments
  • You may not edit your posts
  •