Results 1 to 1 of 1
  1. #1
    dR Rockers www.desirulez.net
    Join Date
    Aug 2011
    Posts
    5,859

    T

    Cool Daler Mehndi - Raula Pai Gaya (2007)

    Follow us on Social Media










    Daler Mehndi - Raula Pai Gaya (2007)

    Select only the formats that you want and need. Available formats are: AAC 320, MP3 320, FLAC compressed, Ogg Vorbis q8.9, and MP3 V2. Album scans, .cue, log, and .M3U are included for all.

    Original rip done with EAC and transcoding done with Foobar.


    [info]

    Exact Audio Copy V1.0 beta 3 from 29. August 2011

    EAC extraction logfile from 14. December 2011, 2:18

    Daler Mehndi / Raula Pai Gaya

    Used drive: ASUS SDRW-08D1S-U Adapter: 1 ID: 1
    Read mode: Secure
    Utilize accurate stream: Yes
    Defeat audio cache: Yes
    Make use of C2 pointers: No
    Read offset correction: 103
    Overread into Lead-In and Lead-Out: No
    Fill up missing offset samples with silence: Yes
    Delete leading and trailing silent blocks: No
    Null samples used in CRC calculations: Yes
    Used interface: Native Win32 interface for Win NT & 2000
    Gap handling: Appended to previous track
    Used output format: User Defined Encoder
    Selected bitrate: 1024 kBit/s
    Quality: High
    Add ID3 tag: Yes
    Command line compressor: C:\Program Files (x86)\Exact Audio Copy\Flac\flac.exe
    Additional command line options: -8 -V -T "ARTIST=%artist%" -T "TITLE=%title%" -T "ALBUM=%albumtitle%" -T "DATE=%year%" -T "TRACKNUMBER=%tracknr%" -T "GENRE=%genre%" -T "PERFORMER=%albuminterpret%" -T "COMPOSER=%composer%" %haslyrics%--tag-from-file=LYRICS="%lyricsfile%"%haslyrics% -T "ALBUMARTIST=%albumartist%" -T "DISCNUMBER=%cdnumber%" -T "TOTALDISCS=%totalcds%" -T "TOTALTRACKS=%numtracks%" -T "COMMENT=%comment%" %source% -o %dest%

    TOC of the extracted CD

    Track | Start | Length | Start sector | End sector

    1 | 0:00.00 | 5:28.36 | 0 | 24635
    2 | 5:28.36 | 3:55.10 | 24636 | 42270
    3 | 9:23.46 | 6:04.60 | 42271 | 69630
    4 | 15:28.31 | 6:18.08 | 69631 | 97988
    5 | 21:46.39 | 4:02.70 | 97989 | 116208
    6 | 25:49.34 | 4:17.05 | 116209 | 135488
    7 | 30:06.39 | 4:29.48 | 135489 | 155711
    8 | 34:36.12 | 4:42.51 | 155712 | 176912
    9 | 39:18.63 | 4:10.45 | 176913 | 195707
    10 | 43:29.33 | 3:23.34 | 195708 | 210966
    11 | 46:52.67 | 5:04.52 | 210967 | 233818

    Track 1

    Filename C:\Users\Anish\Desktop\Daler Mehndi - Raula Pai Gaya (2007) [FLAC]\01 - Namoh Namoh.wav
    Pre-gap length 0:00:02.00

    Peak level 94.4 %
    Extraction speed 1.3 X
    Track quality 100.0 %
    Test CRC EC1860BB
    Copy CRC EC1860BB
    Accurately ripped (confidence 1) [7820058B] (AR v1)
    Copy OK

    Track 2

    Filename C:\Users\Anish\Desktop\Daler Mehndi - Raula Pai Gaya (2007) [FLAC]\02 - Raula Pai Gaya.wav
    Pre-gap length 0:00:02.00

    Peak level 94.4 %
    Extraction speed 1.4 X
    Track quality 100.0 %
    Test CRC A25B7721
    Copy CRC A25B7721
    Accurately ripped (confidence 1) [6E49D59B] (AR v1)
    Copy OK

    Track 3

    Filename C:\Users\Anish\Desktop\Daler Mehndi - Raula Pai Gaya (2007) [FLAC]\03 - Koi Dheere Dheere.wav
    Pre-gap length 0:00:02.00

    Peak level 94.4 %
    Extraction speed 1.7 X
    Track quality 100.0 %
    Test CRC 72508050
    Copy CRC 72508050
    Accurately ripped (confidence 1) [85F23E54] (AR v1)
    Copy OK

    Track 4

    Filename C:\Users\Anish\Desktop\Daler Mehndi - Raula Pai Gaya (2007) [FLAC]\04 - Dholna.wav
    Pre-gap length 0:00:02.00

    Peak level 100.0 %
    Extraction speed 1.8 X
    Track quality 100.0 %
    Test CRC F695AA8D
    Copy CRC F695AA8D
    Accurately ripped (confidence 1) [387A36D2] (AR v1)
    Copy OK

    Track 5

    Filename C:\Users\Anish\Desktop\Daler Mehndi - Raula Pai Gaya (2007) [FLAC]\05 - Gora Gora Badan.wav
    Pre-gap length 0:00:02.00

    Peak level 94.4 %
    Extraction speed 1.9 X
    Track quality 100.0 %
    Test CRC 4CB48211
    Copy CRC 4CB48211
    Accurately ripped (confidence 1) [9AC8A65E] (AR v1)
    Copy OK

    Track 6

    Filename C:\Users\Anish\Desktop\Daler Mehndi - Raula Pai Gaya (2007) [FLAC]\06 - Kudi Chahiye.wav
    Pre-gap length 0:00:02.01

    Peak level 94.4 %
    Extraction speed 2.0 X
    Track quality 100.0 %
    Test CRC 4905340A
    Copy CRC 4905340A
    Accurately ripped (confidence 1) [52F1B658] (AR v1)
    Copy OK

    Track 7

    Filename C:\Users\Anish\Desktop\Daler Mehndi - Raula Pai Gaya (2007) [FLAC]\07 - Kachi Tutt Gayi.wav
    Pre-gap length 0:00:02.00

    Peak level 94.4 %
    Extraction speed 2.1 X
    Track quality 100.0 %
    Test CRC 37F9695A
    Copy CRC 37F9695A
    Accurately ripped (confidence 1) [D36D1F27] (AR v1)
    Copy OK

    Track 8

    Filename C:\Users\Anish\Desktop\Daler Mehndi - Raula Pai Gaya (2007) [FLAC]\08 - Wanna Marry You.wav
    Pre-gap length 0:00:02.00

    Peak level 94.4 %
    Extraction speed 2.2 X
    Track quality 100.0 %
    Test CRC CD93696D
    Copy CRC CD93696D
    Accurately ripped (confidence 1) [A519A232] (AR v1)
    Copy OK

    Track 9

    Filename C:\Users\Anish\Desktop\Daler Mehndi - Raula Pai Gaya (2007) [FLAC]\09 - Tere Ch Tera Yar Nachda.wav
    Pre-gap length 0:00:02.00

    Peak level 100.0 %
    Extraction speed 2.3 X
    Track quality 100.0 %
    Test CRC DEFA1071
    Copy CRC DEFA1071
    Accurately ripped (confidence 1) [87CA826F] (AR v1)
    Copy OK

    Track 10

    Filename C:\Users\Anish\Desktop\Daler Mehndi - Raula Pai Gaya (2007) [FLAC]\10 - Aaja Nach Le.wav
    Pre-gap length 0:00:02.00

    Peak level 99.1 %
    Extraction speed 2.3 X
    Track quality 100.0 %
    Test CRC 5BFC1912
    Copy CRC 5BFC1912
    Accurately ripped (confidence 1) [5F93DF13] (AR v1)
    Copy OK

    Track 11

    Filename C:\Users\Anish\Desktop\Daler Mehndi - Raula Pai Gaya (2007) [FLAC]\11 - Miss Call.wav
    Pre-gap length 0:00:02.00

    Peak level 94.4 %
    Extraction speed 2.5 X
    Track quality 100.0 %
    Test CRC 0AC9D713
    Copy CRC 0AC9D713
    Accurately ripped (confidence 1) [4415A20D] (AR v1)
    Copy OK

    All tracks accurately ripped

    No errors occurred

    End of status report




    Code:
    http://www.filesonic.com/file/e9hkiuR/Daler Mehndi - Raula Pai Gaya (2007).rar
    Code:
    http://www.fileserve.com/file/pQfPDWX/Daler Mehndi - Raula Pai Gaya (2007).rar
    Code:
    http://www.filejungle.com/f/yBbCf5/Daler Mehndi - Raula Pai Gaya (2007).rar

 

 

Posting Permissions

  • You may not post new threads
  • You may not post replies
  • You may not post attachments
  • You may not edit your posts
  •