Results 1 to 1 of 1
  1. #1

    Default Soulja Boy: The Movie [2011]

    Follow us on Social Media







    Soulja Boy: The Movie [2011]

    This file was not capped / created by the uploader. Full credit and all of your thanks should go to that person. If this is your file, thank you
    Code:
    Genre: Documentary
    Rating: n/A : 
    
    Runtime: 92 minutes
    DVD Release date: October 18, 2011 
    Director: Peter Spirer
    Cast: Soulja Boy
    
    Plot: The young and charismatic yet polarizing entrepreneur offers an all access glimpse into his life, his music, and his fascinating career.
    
    IMDB Info http://www.imdb.com/title/tt1787113/   
    
    General
    Complete name                    : Soulja.Boy.The.Movie.2011.DVDRip.MUF.mp4
    Format                           : MPEG-4
    Format profile                   : Base Media
    Codec ID                         : isom
    File size                        : 909 MiB
    Duration                         : 1h 32mn
    Overall bit rate                 : 1 370 Kbps
    Movie name                       : Soulja Boy The Movie
    Album                            : SOULJA_BOY
    Writing application              : Lavf52.78.4
    
    Video
    ID                               : 1
    Format                           : AVC
    Format/Info                      : Advanced Video Codec
    Format profile                   : [email protected]
    Format settings, CABAC           : Yes
    Format settings, ReFrames        : 1 frame
    Codec ID                         : avc1
    Codec ID/Info                    : Advanced Video Coding
    Duration                         : 1h 32mn
    Bit rate mode                    : Variable
    Bit rate                         : 1 303 Kbps
    Width                            : 720 pixels
    Height                           : 402 pixels
    Display aspect ratio             : 16:9
    Frame rate mode                  : Constant
    Frame rate                       : 29.970 fps
    Color space                      : YUV
    Chroma subsampling               : 4:2:0
    Bit depth                        : 8 bits
    Scan type                        : Progressive
    Bits/(Pixel*Frame)               : 0.150
    Stream size                      : 864 MiB (95%)
    Writing library                  : x264 core
    Color primaries                  : BT.601-6 525, BT.1358 525, BT.1700 NTSC, SMPTE 170M
    Transfer characteristics         : BT.709-5, BT.1361
    Matrix coefficients              : BT.601-6 525, BT.1358 525, BT.1700 NTSC, SMPTE 170M
    
    Audio
    ID                               : 2
    Format                           : MPEG Audio
    Format version                   : Version 1
    Format profile                   : Layer 3
    Mode                             : Joint stereo
    Mode extension                   : MS Stereo
    Codec ID                         : 6B
    Duration                         : 1h 32mn
    Bit rate mode                    : Constant
    Bit rate                         : 64.0 Kbps
    Channel(s)                       : 2 channels
    Sampling rate                    : 48.0 KHz
    Compression mode                 : Lossy
    Stream size                      : 42.4 MiB (5%)
    SCREENSHOT

    Code:
    http://www.fileserve.com/file/kMw7pmf/Soulja.Boy.The.Movie.2011.DVDRip.MUF.mp4
    
    http://www.filesonic.com/file/w60c1Mm/Soulja.Boy.The.Movie.2011.DVDRip.MUF.mp4
    
    http://depositfiles.com/files/zqhrsmq1w

 

 

Posting Permissions

  • You may not post new threads
  • You may not post replies
  • You may not post attachments
  • You may not edit your posts
  •