Results 1 to 1 of 1
  1. #1

    Thumbs up Bunty aur Babli (2005) DVDrip Upscaled x264 - [Rombur]

    Follow us on Social Media








    Complete name : Bunty.aur.Babli.2005.DVD9.Upscale-Rombur.mkv
    Format : Matroska
    File size : 3.97 GiB
    Duration : 2h 43mn
    Overall bit rate : 3 471 Kbps
    Video
    Format : AVC
    Format/Info : Advanced Video Codec
    Format profile : [email protected]
    Format settings, CABAC : Yes
    Format settings, ReFrames : 4 frames
    Muxing mode : Container [email protected]
    Codec ID : V_MPEG4/ISO/AVC
    Duration : 2h 43mn
    Bit rate : 2 954 Kbps
    Nominal bit rate : 3 000 Kbps
    Width : 1 024 pixels
    Height : 480 pixels
    Display aspect ratio : 2.2:1
    Frame rate mode : Variable
    Frame rate : 29.970 fps
    Resolution : 24 bits
    Colorimetry : 4:2:0
    Scan type : Progressive
    Bits/(Pixel*Frame) : 0.201
    Stream size : 3.37 GiB (85%)
    Writing library : x264 core 112
    Audio
    Format : AC-3
    Format/Info : Audio Coding 3
    Codec ID : A_AC3
    Duration : 2h 43mn
    Bit rate mode : Constant
    Bit rate : 448 Kbps
    Channel(s) : 6 channels
    Channel positions : Front: L C R, Surround: L R, LFE
    Sampling rate : 48.0 KHz
    Stream size : 524 MiB (13%)
    Language : Hindi
    Text
    Format : VobSub
    Codec ID : S_VOBSUB
    Codec ID/Info : The same subtitle format used on DVDs
    Language : English










    700MB Parts | INTERCHANGEABLE LINKS | NO PASSWORD


    Code:
    http://www.filesonic.com/file/4291181325/AMP-Bunty.aur.Babli.2005.Upscaled.720.DVDRip.mkv.001
    http://www.filesonic.com/file/4291181445/AMP-Bunty.aur.Babli.2005.Upscaled.720.DVDRip.mkv.002
    http://www.filesonic.com/file/4291181475/AMP-Bunty.aur.Babli.2005.Upscaled.720.DVDRip.mkv.003
    http://www.filesonic.com/file/4291185415/AMP-Bunty.aur.Babli.2005.Upscaled.720.DVDRip.mkv.004
    http://www.filesonic.com/file/4291222245/AMP-Bunty.aur.Babli.2005.Upscaled.720.DVDRip.mkv.005
    http://www.filesonic.com/file/4291211145/AMP-Bunty.aur.Babli.2005.Upscaled.720.DVDRip.mkv.006

    Code:
    http://www.fileserve.com/file/JJsJGVV/AMP-Bunty.aur.Babli.2005.Upscaled.720.DVDRip.mkv.001
    http://www.fileserve.com/file/8Fp4G65/AMP-Bunty.aur.Babli.2005.Upscaled.720.DVDRip.mkv.002
    http://www.fileserve.com/file/QQR5Ddr/AMP-Bunty.aur.Babli.2005.Upscaled.720.DVDRip.mkv.003
    http://www.fileserve.com/file/hePT4bx/AMP-Bunty.aur.Babli.2005.Upscaled.720.DVDRip.mkv.004
    http://www.fileserve.com/file/TmSDzk5/AMP-Bunty.aur.Babli.2005.Upscaled.720.DVDRip.mkv.005
    http://www.fileserve.com/file/TDHBGbz/AMP-Bunty.aur.Babli.2005.Upscaled.720.DVDRip.mkv.006

    Code:
    http://www.netload.in/datei928GmcHeeq/AMP-Bunty.aur.Babli.2005.Upscaled.720.DVDRip.mkv.001.htm
    http://www.netload.in/dateiWKvkwlmJJN/AMP-Bunty.aur.Babli.2005.Upscaled.720.DVDRip.mkv.002.htm
    http://www.netload.in/dateiOdZrX0eYok/AMP-Bunty.aur.Babli.2005.Upscaled.720.DVDRip.mkv.003.htm
    http://www.netload.in/dateiHX3w21KHCp/AMP-Bunty.aur.Babli.2005.Upscaled.720.DVDRip.mkv.004.htm
    http://www.netload.in/datei0xpyVdANlM/AMP-Bunty.aur.Babli.2005.Upscaled.720.DVDRip.mkv.005.htm
    http://www.netload.in/dateiHKJ9USnKi9/AMP-Bunty.aur.Babli.2005.Upscaled.720.DVDRip.mkv.006.htm
    Man is still the most extraordinary computer of all.




 

 

Posting Permissions

  • You may not post new threads
  • You may not post replies
  • You may not post attachments
  • You may not edit your posts
  •