Results 1 to 1 of 1
  1. #1
    dR Rockers www.desirulez.net
    Join Date
    Apr 2011
    Location
    desirulez.net
    Posts
    192

    T

    Thumbs down Don 2 2011 Cam MPG 1CD 700MB Untouched *Exclusive*

    Follow us on Social Media












    Code:
    Format                                   : MPEG-PS
    File size                                : 709 MiB
    Duration                                 : 1h 38mn
    Overall bit rate mode                    : Variable
    Overall bit rate                         : 1 009 Kbps
    
    Video
    ID                                       : 224 (0xE0)
    Format                                   : MPEG Video
    Format version                           : Version 2
    Format profile                           : [email protected]
    Format settings, BVOP                    : Yes
    Format settings, Matrix                  : Default
    Format settings, GOP                     : M=3, N=12
    Duration                                 : 1h 38mn
    Bit rate mode                            : Variable
    Bit rate                                 : 861 Kbps
    Maximum bit rate                         : 2 519 Mbps
    Width                                    : 352 pixels
    Height                                   : 288 pixels
    Display aspect ratio                     : 4:3
    Frame rate                               : 25.000 fps
    Standard                                 : PAL
    Color space                              : YUV
    Chroma subsampling                       : 4:2:0
    Bit depth                                : 8 bits
    Scan type                                : Progressive
    Compression mode                         : Lossy
    Bits/(Pixel*Frame)                       : 0.340
    Stream size                              : 605 MiB (85%)
    
    Audio
    ID                                       : 192 (0xC0)
    Format                                   : MPEG Audio
    Format version                           : Version 1
    Format profile                           : Layer 2
    Duration                                 : 1h 38mn
    Bit rate mode                            : Constant
    Bit rate                                 : 128 Kbps
    Channel(s)                               : 2 channels
    Sampling rate                            : 44.1 KHz
    Compression mode                         : Lossy
    Stream size                              : 90.0 MiB (13%)




    CREDITS TO nyad



    SINGLELINKS

    Code:
    http://www.fileserve.com/file/YvE7bNy/Don_2__2011__Cam.MPG
    Exclusive ReleaseR

 

 

Posting Permissions

  • You may not post new threads
  • You may not post replies
  • You may not post attachments
  • You may not edit your posts
  •