Results 1 to 1 of 1
  1. #1
    Banned www.desirulez.net
    Join Date
    Feb 2011
    Posts
    2,003

    T

    Default Don2(2012) - Scam - Rip - Xvid - Mp3 - 275MB

    Follow us on Social Media







    Don2(2012) - Scam - Rip - Xvid - Mp3 - 275MB

    Don 2 (2011) 275 MB Super Cam Rip XviD Mp3


    Merry Christmas & Happy new Year With This Exclusive Small Size


    Code:
    Format                                   : AVI
    Format/Info                              : Audio Video Interleave
    File size                                : 268 MiB
    Duration                                 : 1h 38mn
    Overall bit rate                         : 381 Kbps
    Writing application                      : Lavf52.39.1
    Writing library                          : VirtualDub build 32842/release
    
    Video
    ID                                       : 0
    Format                                   : MPEG-4 Visual
    Format profile                           : Advanced [email protected]
    Format settings, BVOP                    : 2
    Format settings, QPel                    : No
    Format settings, GMC                     : No warppoints
    Format settings, Matrix                  : Default (H.263)
    Muxing mode                              : Packed bitstream
    Codec ID                                 : XVID
    Codec ID/Hint                            : XviD
    Duration                                 : 1h 38mn
    Bit rate                                 : 304 Kbps
    Width                                    : 602 pixels
    Height                                   : 266 pixels
    Display aspect ratio                     : 2.25:1
    Frame rate                               : 25.000 fps
    Color space                              : YUV
    Chroma subsampling                       : 4:2:0
    Bit depth                                : 8 bits
    Scan type                                : Progressive
    Compression mode                         : Lossy
    Bits/(Pixel*Frame)                       : 0.076
    Stream size                              : 214 MiB (80%)
    Writing library                          : XviD 64
    
    Audio
    ID                                       : 1
    Format                                   : MPEG Audio
    Format version                           : Version 1
    Format profile                           : Layer 3
    Mode                                     : Joint stereo
    Mode extension                           : MS Stereo
    Codec ID                                 : 55
    Codec ID/Hint                            : MP3
    Duration                                 : 1h 38mn
    Bit rate mode                            : Constant
    Bit rate                                 : 64.0 Kbps
    Channel(s)                               : 2 channels
    Sampling rate                            : 44.1 KHz
    Compression mode                         : Lossy
    Stream size                              : 45.0 MiB (17%)
    Alignment                                : Aligned on interleaves
    Interleave, duration                     : 26 ms (0.65 video frame)
    Interleave, preload duration             : 522 ms
    Writing library                          : LAMEUUULAME3.96.1















    Single Link
    Code:
    http://www.fileserve.com/file/HH4nmUM
    
    http://www.uploadstation.com/file/GGepGnd
    
    http://www.filesonic.com/file/ZNjUvtJ/kingkhaan d_2.avi
    100mb links
    Code:
    http://www.filesonic.com/file/PLFj8i1/kingkhaan d_2.avi.001
    http://www.filesonic.com/file/JHlWKHu/kingkhaan d_2.avi.002
    http://www.filesonic.com/file/IDNiS2j/kingkhaan d_2.avi.003
    Code:
    http://www.uploadstation.com/file/z2wVH2D
    http://www.uploadstation.com/file/KsnKYH5
    http://www.uploadstation.com/file/x29s2U8

 

 

Posting Permissions

  • You may not post new threads
  • You may not post replies
  • You may not post attachments
  • You may not edit your posts
  •