Results 1 to 1 of 1
  1. #1
    Hot Member www.desirulez.net
    Join Date
    Dec 2011
    Posts
    559

    Thumbs up Don 2 (2011) - Untouched - CAM - MPEG - 1CD - 709MB - [Team AF]

    Follow us on Social Media









    Code:
    Format                                   : MPEG-PS
    File size                                : 709 MiB
    Duration                                 : 1h 38mn
    Overall bit rate mode                    : Variable
    Overall bit rate                         : 1 009 Kbps
    
    Video
    ID                                       : 224 (0xE0)
    Format                                   : MPEG Video
    Format version                           : Version 2
    Format profile                           : [email protected]
    Format settings, BVOP                    : Yes
    Format settings, Matrix                  : Default
    Format settings, GOP                     : M=3, N=12
    Duration                                 : 1h 38mn
    Bit rate mode                            : Variable
    Bit rate                                 : 861 Kbps
    Maximum bit rate                         : 2 519 Mbps
    Width                                    : 352 pixels
    Height                                   : 288 pixels
    Display aspect ratio                     : 4:3
    Frame rate                               : 25.000 fps
    Standard                                 : PAL
    Color space                              : YUV
    Chroma subsampling                       : 4:2:0
    Bit depth                                : 8 bits
    Scan type                                : Progressive
    Compression mode                         : Lossy
    Bits/(Pixel*Frame)                       : 0.340
    Stream size                              : 605 MiB (85%)
    
    Audio
    ID                                       : 192 (0xC0)
    Format                                   : MPEG Audio
    Format version                           : Version 1
    Format profile                           : Layer 2
    Duration                                 : 1h 38mn
    Bit rate mode                            : Constant
    Bit rate                                 : 128 Kbps
    Channel(s)                               : 2 channels
    Sampling rate                            : 44.1 KHz
    Compression mode                         : Lossy
    Stream size                              : 90.0 MiB (13%)




    Credits : Nyad





    Code:
    http://www.filesonic.com/file/boyRDKZ/D-2.2011.CAM.1CD-SC.MPG


    Code:
    http://www.fileserve.com/file/kS7FZ2X/D-2.2011.CAM.1CD-SC.MPG


    Code:
    http://www.filejungle.com/f/K8pZzY/D-2.2011.CAM.1CD-SC.MPG
    Split Links :-

    Code:
    http://www.filesonic.com/file/Nr29tkj/D-2.2011.CAM.1CD-SC.MPG.001
    http://www.filesonic.com/file/XzbJizX/D-2.2011.CAM.1CD-SC.MPG.002
    http://www.filesonic.com/file/XzbJgQY/D-2.2011.CAM.1CD-SC.MPG.003
    http://www.filesonic.com/file/hjyE8rd/D-2.2011.CAM.1CD-SC.MPG.004
    http://www.filesonic.com/file/kksqayC/D-2.2011.CAM.1CD-SC.MPG.005
    Code:
    http://www.fileserve.com/file/tHej63r/D-2.2011.CAM.1CD-SC.MPG.001
    http://www.fileserve.com/file/ppV9hHu/D-2.2011.CAM.1CD-SC.MPG.002
    http://www.fileserve.com/file/UNKMyWE/D-2.2011.CAM.1CD-SC.MPG.003
    http://www.fileserve.com/file/TknTSnq/D-2.2011.CAM.1CD-SC.MPG.004
    http://www.fileserve.com/file/Hu5acMs/D-2.2011.CAM.1CD-SC.MPG.005
    Code:
    http://www.filejungle.com/f/3e6HSJ/D-2.2011.CAM.1CD-SC.MPG.001
    http://www.filejungle.com/f/P2PP5s/D-2.2011.CAM.1CD-SC.MPG.002
    http://www.filejungle.com/f/THFNdv/D-2.2011.CAM.1CD-SC.MPG.003
    http://www.filejungle.com/f/WhjBWp/D-2.2011.CAM.1CD-SC.MPG.004
    http://www.filejungle.com/f/YaszZx/D-2.2011.CAM.1CD-SC.MPG.005
    Code:
    http://www.filefactory.com/file/c29e6ff/n/D-2.2011.CAM.1CD-SC.MPG.001
    http://www.filefactory.com/file/c00a1d5/n/D-2.2011.CAM.1CD-SC.MPG.002
    http://www.filefactory.com/file/c00a105/n/D-2.2011.CAM.1CD-SC.MPG.003
    http://www.filefactory.com/file/c00a12c/n/D-2.2011.CAM.1CD-SC.MPG.004
    http://www.filefactory.com/file/c00a13b/n/D-2.2011.CAM.1CD-SC.MPG.005
    Code:
    http://filepost.com/files/ba71356b/D-2.2011.CAM.1CD-SC.MPG.001
    http://filepost.com/files/dc9a2ecd/D-2.2011.CAM.1CD-SC.MPG.002
    http://filepost.com/files/7d97mmce/D-2.2011.CAM.1CD-SC.MPG.003
    http://filepost.com/files/fme134b8/D-2.2011.CAM.1CD-SC.MPG.004
    http://filepost.com/files/fe1b5m8m/D-2.2011.CAM.1CD-SC.MPG.005

 

 

Posting Permissions

  • You may not post new threads
  • You may not post replies
  • You may not post attachments
  • You may not edit your posts
  •