Results 1 to 3 of 3
  1. #1
    Banned www.desirulez.net
    Join Date
    Jan 2011
    Posts
    193

    T

    Default Bedtime Stories (2008) Telugu Dubbed 1CD 720P BluRayRip Team Mirchi Exclusive

    Follow us on Social Media













    Code:
    Format                                   : Matroska
    Format version                           : Version 2
    File size                                : 704 MiB
    Duration                                 : 1h 34mn
    Overall bit rate                         : 1 037 Kbps
    
    Video
    
    Format                                   : AVC
    Format/Info                              : Advanced Video Codec
    Codec ID                                 : V_MPEG4/ISO/AVC
    Duration                                 : 1h 34mn
    Bit rate                                 : 917 Kbps
    Width                                    : 1 280 pixels
    Height                                   : 544 pixels
    Display aspect ratio                     : 2.35:1
    Frame rate                               : 25.000 fps
    Stream size                              : 603 MiB (86%)
    
    Audio
    
    Format                                   : MPEG Audio
    Codec ID                                 : A_MPEG/L3
    Codec ID/Hint                            : MP3
    Duration                                 : 1h 34mn
    Bit rate mode                            : Constant
    Bit rate                                 : 128 Kbps
    Channel(s)                               : 2 channels
    Sampling rate                            : 44.1 KHz
    Stream size                              : 86.9 MiB (12%)










    SINGLE FILE LINKS

    Code:
    http://file4sharing.com/1z3loc5fdyb3
    
    http://muchshare.net/o8fhal9tpsln
    
    http://www.filedino.com/dhrq7ld2cxi2
    
    http://oron.com/47060e61bgq1
    MULTI LINKS SPLIT

    Code:
    Part 1  http://file4sharing.com/lusp06d12utd
    
    Part 2  http://file4sharing.com/szwj879dwth2
    
    Part 3  http://file4sharing.com/btgnvi7gdhnr
    Code:
    Part 1  http://www.filedino.com/mkdg9140c68i
    
    Part 2  http://www.filedino.com/5gbml8kqjayf
    
    Part 3  http://www.filedino.com/fdo4lvsrkj6a
    Code:
    Part 1  http://muchshare.net/wef42puy9pjb
    
    Part 2  http://muchshare.net/wwrjixdwibix
    
    Part 3  http://muchshare.net/3yhwcp194sf4
    Code:
    Part 1  http://oron.com/2mchibosufvw
    
    Part 2  http://oron.com/z7gjpumowp24
    
    Part 3  http://oron.com/kz5sfur98rvp

    CREDITS GOES TO [email protected] MIRCHI







  2. #2
    Hot Member www.desirulez.net
    Join Date
    Oct 2011
    Posts
    720

    T

    Default

    thanks..

  3. #3
    Landed To DesiRulez www.desirulez.net
    Join Date
    Feb 2012
    Posts
    16

    T

    Default

    thanks

 

 

Posting Permissions

  • You may not post new threads
  • You may not post replies
  • You may not post attachments
  • You may not edit your posts
  •