Results 1 to 1 of 1
  1. #1
    dR Rockers www.desirulez.net
    Join Date
    Aug 2011
    Posts
    5,859

    T

    Default Khal Nayak [1993] - 2.18GB - DVDRip - Upscaled - x264 - AC3 - 6 @ Dus

    Follow us on Social Media











    ------------------------------------------------------------------
    Khal Nayak [1993] DVDRip Upscaled x264 AC3 - 6 @ Dus
    ------------------------------------------------------------------
    HTML Code:
    General
    Unique ID : 224260774158266195507296064348606375042 (0xA8B70DD4EDCAD4B98C68135FEA432482)
    Complete name : D:\Ripped\Khal Nayak [1993] DVDRip Upscaled x264 AC3 - 6 @ Dus\Khal Nayak [1993] DVDRip Upscaled x264 AC3 - 6 @ Dus.mkv
    Format : Matroska
    Format version : Version 2
    File size : 2.18 GiB
    Duration : 3h 0mn
    Overall bit rate mode : Variable
    Overall bit rate : 1 737 Kbps
    Encoded date : UTC 2011-12-21 04:06:28
    Writing application : mkvmerge v4.9.1 ('Ich will') built on Jul 11 2011 23:53:15
    Writing library : libebml v1.2.1 + libmatroska v1.1.1

    Video
    ID : 1
    Format : AVC
    Format/Info : Advanced Video Codec
    Format profile : [email protected]
    Format settings, CABAC : Yes
    Format settings, ReFrames : 3 frames
    Codec ID : V_MPEG4/ISO/AVC
    Duration : 3h 0mn
    Bit rate mode : Variable
    Bit rate : 1 479 Kbps
    Maximum bit rate : 40.0 Mbps
    Width : 1 280 pixels
    Height : 544 pixels
    Display aspect ratio : 2.35:1
    Frame rate : 23.976 fps
    Color space : YUV
    Chroma subsampling : 4:2:0
    Bit depth : 8 bits
    Scan type : Progressive
    Bits/(Pixel*Frame) : 0.089
    Stream size : 1.82 GiB (83%)
    Writing library : x264 core 116 r2074 2641b9e
    Encoding settings : cabac=1 / ref=3 / deblock=1:-1:-1 / analyse=0x1:0x111 / me=hex / subme=5 / psy=1 / psy_rd=1.00:0.15 / mixed_ref=1 / me_range=16 / chroma_me=1 / trellis=0 / 8x8dct=0 / cqm=0 / deadzone=21,11 / fast_pskip=1 / chroma_qp_offset=0 / threads=3 / sliced_threads=0 / slices=4 / nr=0 / decimate=1 / interlaced=0 / bluray_compat=1 / constrained_intra=0 / bframes=3 / b_pyramid=1 / b_adapt=1 / b_bias=0 / direct=2 / weightb=1 / open_gop=1 / weightp=1 / keyint=24 / keyint_min=2 / scenecut=40 / intra_refresh=0 / rc_lookahead=24 / rc=2pass / mbtree=1 / bitrate=1479 / ratetol=1.0 / qcomp=0.60 / qpmin=10 / qpmax=51 / qpstep=4 / cplxblur=20.0 / qblur=0.5 / vbv_maxrate=40000 / vbv_bufsize=30000 / nal_hrd=vbr / ip_ratio=1.40 / aq=1:1.00
    Language : English

    Audio
    ID : 2
    Format : AC-3
    Format/Info : Audio Coding 3
    Mode extension : CM (complete main)
    Codec ID : A_AC3
    Duration : 3h 0mn
    Bit rate mode : Constant
    Bit rate : 256 Kbps
    Channel(s) : 2 channels
    Channel positions : Front: L R
    Sampling rate : 48.0 KHz
    Bit depth : 16 bits
    Compression mode : Lossy
    Stream size : 330 MiB (15%)








    SINGLE LINK

    Code:
    http://www.filesonic.com/file/4337320245/Khal Nayak [1993] DVDRip Upscaled x264 AC3 - 6 @ Dus.mkv
    Code:
    http://www.filejungle.com/f/xUtxJF/Khal Nayak [1993] DVDRip Upscaled x264 AC3 - 6 @ Dus.mkv
    450MB LINKS

    Code:
    http://www.filesonic.com/file/4337298515/Khal Nayak [1993] DVDRip Upscaled x264 AC3 - 6 @ Dus.mkv.001
    http://www.filesonic.com/file/4337318455/Khal Nayak [1993] DVDRip Upscaled x264 AC3 - 6 @ Dus.mkv.002
    http://www.filesonic.com/file/4337319225/Khal Nayak [1993] DVDRip Upscaled x264 AC3 - 6 @ Dus.mkv.003
    http://www.filesonic.com/file/4337320175/Khal Nayak [1993] DVDRip Upscaled x264 AC3 - 6 @ Dus.mkv.004
    http://www.filesonic.com/file/4337298535/Khal Nayak [1993] DVDRip Upscaled x264 AC3 - 6 @ Dus.mkv.005
    
    
    http://www.fileserve.com/file/RU5RtXr/Khal Nayak [1993] DVDRip Upscaled x264 AC3 - 6 @ Dus.mkv.001
    http://www.fileserve.com/file/VajffcC/Khal Nayak [1993] DVDRip Upscaled x264 AC3 - 6 @ Dus.mkv.002
    http://www.fileserve.com/file/vDZjzvx/Khal Nayak [1993] DVDRip Upscaled x264 AC3 - 6 @ Dus.mkv.003
    http://www.fileserve.com/file/rsSPnsb/Khal Nayak [1993] DVDRip Upscaled x264 AC3 - 6 @ Dus.mkv.004
    http://www.fileserve.com/file/5vGHvTX/Khal Nayak [1993] DVDRip Upscaled x264 AC3 - 6 @ Dus.mkv.005
    
    
    http://www.filejungle.com/f/4WMQdq/Khal Nayak [1993] DVDRip Upscaled x264 AC3 - 6 @ Dus.mkv.001
    http://www.filejungle.com/f/F2Wuwn/Khal Nayak [1993] DVDRip Upscaled x264 AC3 - 6 @ Dus.mkv.002
    http://www.filejungle.com/f/WWShfj/Khal Nayak [1993] DVDRip Upscaled x264 AC3 - 6 @ Dus.mkv.003
    http://www.filejungle.com/f/yAXP2k/Khal Nayak [1993] DVDRip Upscaled x264 AC3 - 6 @ Dus.mkv.004
    http://www.filejungle.com/f/HQsYux/Khal Nayak [1993] DVDRip Upscaled x264 AC3 - 6 @ Dus.mkv.005

 

 

Posting Permissions

  • You may not post new threads
  • You may not post replies
  • You may not post attachments
  • You may not edit your posts
  •