Results 1 to 1 of 1
  1. #1
    Banned www.desirulez.net
    Join Date
    Jan 2011
    Posts
    193

    T

    Default Pirates of the Caribbean At World's End(2007) Telugu Dubbed 1CD 720P BR Team Mirchi

    Follow us on Social Media











    Code:
    Format                                   : Matroska
    Format version                           : Version 2
    File size                                : 740 MiB
    Duration                                 : 2h 39mn
    Overall bit rate                         : 647 Kbps
    
    
    Video
    
    Format                                   : AVC
    Format/Info                              : Advanced Video Codec
    Format profile                           : [email protected]
    Format settings, CABAC                   : Yes
    Format settings, ReFrames                : 4 frames
    Codec ID                                 : V_MPEG4/ISO/AVC
    Duration                                 : 2h 39mn
    Bit rate                                 : 525 Kbps
    Width                                    : 1 280 pixels
    Height                                   : 528 pixels
    Display aspect ratio                     : 2.40:1
    Frame rate                               : 25.000 fps
    Stream size                              : 579 MiB (78%)
    
    Audio
    ID                                       : 2
    Format                                   : AC-3
    Format/Info                              : Audio Coding 3
    Codec ID                                 : A_AC3
    Duration                                 : 2h 39mn
    Bit rate                                 : 128 Kbps
    Channel(s)                               : 2 channels
    Channel positions                        : Front: L R
    Sampling rate                            : 44.1 KHz
    Stream size                              : 146 MiB (20%)










    SINGLE FILE LINKS

    Code:
    http://file4sharing.com/0xxzue28xe4n
    
    http://www.filedino.com/4i85olsx9qmd
    
    http://muchshare.net/6hi846egfxih
    
    http://oron.com/yq97wr93dl8r
    MULTI LINKS SPLIT


    Code:
    Part 1  http://file4sharing.com/1ai3qkciny8q
    
    Part 2  http://file4sharing.com/u55vh71wezv1
    
    Part 3  http://file4sharing.com/x7hwyh7il7ti
    Code:
    Part 1  http://www.filedino.com/3nz434o0nrqu
    
    Part 2  http://www.filedino.com/wm43yn7dtg7o
    
    Part 3  http://www.filedino.com/lp96r3yw3pul
    Code:
    Part 1  http://muchshare.net/wg8legsn0ye4
    
    Part 2  http://muchshare.net/rxyuzk2cp89n
    
    Part 3  http://muchshare.net/xqqe7m9ksro4
    Code:
    Part 1  http://oron.com/r3uk0ej8a6c2 
    
    Part 2  http://oron.com/ptidsbp9pnwu
    
    Part 3  http://oron.com/8xi52rrnrfec



    CREDITS GOES TO [email protected] MIRCHI





 

 

Posting Permissions

  • You may not post new threads
  • You may not post replies
  • You may not post attachments
  • You may not edit your posts
  •