Results 1 to 2 of 2
  1. #1
    Hot Member www.desirulez.net
    Join Date
    Sep 2009
    Posts
    1,215

    T

    Thumbs up Wwe tlc ppv-[pr3dator]-pr3dator-rg

    Follow us on Social Media










    Code:
    General
    Format                                   : Windows Media
    File size                                : 2.58 GiB
    Duration                                 : 2h 49mn
    Overall bit rate                         : 2 184 Kbps
    
    Video
    ID                                       : 1
    Format                                   : VC-1
    Format profile                           : MP
    Codec ID                                 : WMV3
    Codec ID/Info                            : Windows Media Video 9
    Codec ID/Hint                            : WMV3
    Description of the codec                 : Windows Media Video 9
    Duration                                 : 2h 49mn
    Bit rate                                 : 1 961 Kbps
    Width                                    : 640 pixels
    Height                                   : 480 pixels
    Display aspect ratio                     : 4:3
    Frame rate                               : 25.000 fps
    Nominal frame rate                       : 29.970 fps
    Bit depth                                : 8 bits
    Scan type                                : Progressive
    Compression mode                         : Lossy
    Bits/(Pixel*Frame)                       : 0.255
    Stream size                              : 2.32 GiB (90%)
    
    Audio
    ID                                       : 2
    Format                                   : WMA
    Format version                           : Version 2
    Codec ID                                 : 161
    Codec ID/Info                            : Windows Media Audio
    Description of the codec                 : Windows Media Audio (v2) 7, 8 and 9 Series
    Duration                                 : 2h 49mn
    Bit rate                                 : 128 Kbps
    Channel(s)                               : 2 channels
    Sampling rate                            : 48.0 KHz
    Bit depth                                : 16 bits
    Stream size                              : 155 MiB (6%)
    SCREENS


    Code:
    http://www.fileserve.com/file/TEtgDnD/WWE TLC PPV-[PR3DATOR]-PR3DATOR-RG.part4.rar
    http://www.fileserve.com/file/PgZQqRM/WWE TLC PPV-[PR3DATOR]-PR3DATOR-RG.part3.rar
    http://www.fileserve.com/file/VBhHshc/WWE TLC PPV-[PR3DATOR]-PR3DATOR-RG.part2.rar
    http://www.fileserve.com/file/Hfk7aBB/WWE TLC PPV-[PR3DATOR]-PR3DATOR-RG.part1.rar
    Code:
    http://www.filesonic.com/file/4291187754/WWE_TLC_PPV-[PR3DATOR]-PR3DATOR-RG.part1.rar
    http://www.filesonic.com/file/4291257064/WWE_TLC_PPV-[PR3DATOR]-PR3DATOR-RG.part2.rar
    http://www.filesonic.com/file/4291324744/WWE_TLC_PPV-[PR3DATOR]-PR3DATOR-RG.part3.rar
    http://www.filesonic.com/file/4291354524/WWE_TLC_PPV-[PR3DATOR]-PR3DATOR-RG.part4.rar
    Code:
    http://www.uploadstation.com/file/PS7Nh7h/WWE_TLC_PPV-[PR3DATOR]-PR3DATOR-RG.part4.rar
    http://www.uploadstation.com/file/VKEYhwu/WWE_TLC_PPV-[PR3DATOR]-PR3DATOR-RG.part3.rar
    http://www.uploadstation.com/file/g2jTfQy/WWE_TLC_PPV-[PR3DATOR]-PR3DATOR-RG.part2.rar
    http://www.uploadstation.com/file/T5PuTP6/WWE_TLC_PPV-[PR3DATOR]-PR3DATOR-RG.part1.rar





  2. #2
    Retired Staff www.desirulez.net
    Join Date
    Dec 2011
    Location
    Posts
    3,615

    T

    Default


 

 

Posting Permissions

  • You may not post new threads
  • You may not post replies
  • You may not post attachments
  • You may not edit your posts
  •