Results 1 to 1 of 1
  1. #1
    Super Member www.desirulez.net
    Join Date
    Aug 2011
    Posts
    385

    T

    Post Disco Dancer [1982] - 1.45GB - DVDRip - XviD - Mp3 - DUS

    Follow us on Social Media







    Disco Dancer [1982] - 1.45GB - DVDRip - XviD - Mp3 - DUS



    ------------------------------------------------------------------
    Disco Dancer [1982] DVDRip Xvid Mp3 @ Dus Release
    ------------------------------------------------------------------


    Code:
    General
    Complete name : E:\Ripped\Disco Dancer [1982] DVDRip Xvid Mp3 @ Dus Release\Disco Dancer [1982] DVDRip Xvid Mp3 @ Dus Release.avi
    Format : AVI
    Format/Info : Audio Video Interleave
    File size : 1.45 GiB
    Duration : 2h 14mn
    Overall bit rate : 1 543 Kbps
    
    Video
    ID : 0
    Format : MPEG-4 Visual
    Format profile : Advanced [email protected]
    Format settings, BVOP : 2
    Format settings, QPel : No
    Format settings, GMC : No warppoints
    Format settings, Matrix : Default (H.263)
    Codec ID : XVID
    Codec ID/Hint : XviD
    Duration : 2h 14mn
    Bit rate : 1 280 Kbps
    Width : 704 pixels
    Height : 480 pixels
    Display aspect ratio : 3:2
    Frame rate : 29.970 fps
    Standard : NTSC
    Color space : YUV
    Chroma subsampling : 4:2:0
    Bit depth : 8 bits
    Scan type : Progressive
    Compression mode : Lossy
    Bits/(Pixel*Frame) : 0.126
    Stream size : 1.20 GiB (83%)
    Writing library : XviD 1.2.1 (UTC 2008-12-04)
    
    Audio
    ID : 1
    Format : MPEG Audio
    Format version : Version 1
    Format profile : Layer 3
    Mode : Joint stereo
    Mode extension : MS Stereo
    Codec ID : 55
    Codec ID/Hint : MP3
    Duration : 2h 14mn
    Bit rate mode : Constant
    Bit rate : 256 Kbps
    Channel(s) : 2 channels
    Sampling rate : 48.0 KHz
    Compression mode : Lossy
    Stream size : 246 MiB (17%)
    Alignment : Aligned on interleaves
    Interleave, duration : 133 ms (4.00 video frames)
    Interleave, preload duration : 216 ms
    Title : VTS_02_1 T80 3_2ch 384Kbps DELAY 0ms_new
    Writing library : LAME3.98r
    Encoding settings : -m j -V 4 -q 2 -lowpass 19.7







    SINGLE LINK

    Code:
    http://www.fileserve.com/file/tSrrdxe/Disco Dancer [1982] DVDRip Xvid Mp3 @ Dus Release.avi
    Code:
    http://filepost.com/files/e5295eb2/Disco_Dancer_[1982][email protected]_Dus_Release.avi
    Code:
    http://www.filesonic.com/file/4259702145/Disco Dancer [1982] DVDRip Xvid Mp3 @ Dus Release.avi
    450MB LINKS

    Code:
    http://www.filesonic.com/file/4259681045/Disco Dancer [1982] DVDRip Xvid Mp3 @ Dus Release.avi.001
    http://www.filesonic.com/file/4259681055/Disco Dancer [1982] DVDRip Xvid Mp3 @ Dus Release.avi.002
    http://www.filesonic.com/file/4259680615/Disco Dancer [1982] DVDRip Xvid Mp3 @ Dus Release.avi.003
    http://www.filesonic.com/file/4259680625/Disco Dancer [1982] DVDRip Xvid Mp3 @ Dus Release.avi.004

    Code:
    http://filepost.com/files/847f2m12/Disco_Dancer_[1982][email protected]_Dus_Release.avi.001
    http://filepost.com/files/676m3fb3/Disco_Dancer_[1982][email protected]_Dus_Release.avi.002
    http://filepost.com/files/ae39c28b/Disco_Dancer_[1982][email protected]_Dus_Release.avi.003
    http://filepost.com/files/95cd867m/Disco_Dancer_[1982][email protected]_Dus_Release.avi.004

    Code:
    http://www.fileserve.com/file/b4mvKrC/Disco Dancer [1982] DVDRip Xvid Mp3 @ Dus Release.avi.001
    http://www.fileserve.com/file/79ys8hj/Disco Dancer [1982] DVDRip Xvid Mp3 @ Dus Release.avi.002
    http://www.fileserve.com/file/usf43uk/Disco Dancer [1982] DVDRip Xvid Mp3 @ Dus Release.avi.003
    http://www.fileserve.com/file/93HZEAw/Disco Dancer [1982] DVDRip Xvid Mp3 @ Dus Release.avi.004

 

 

Posting Permissions

  • You may not post new threads
  • You may not post replies
  • You may not post attachments
  • You may not edit your posts
  •