Results 1 to 1 of 1
  1. #1
    Senior Member www.desirulez.net
    Join Date
    Dec 2011
    Posts
    117

    T

    Exclamation Naam Gum Jaayega (2005) - Music Videos - Untouched - DVD9 - NTSC - Ibraram -=DrC=

    Follow us on Social Media








    Code:
    Movie  : Naam Gum Jaayega (2005) 
    Imdb         : http://www.imdb.com/title/tt0459475/
    Source       : DVD9 @ DRs (Thanx a lot dude)
    Ripper       : Ibraram @ DrC
    Size         : 1.00 GB
    Container    : Vobs Untouched
    Release Date : 10 April 2005 (India) 
    Genre        : Thriller
    Director     : Amol Shetge
    Writer       : Amol Shetge
    Stars        : Rakesh Bapat, Diya Mirza and Aryan Vaid
    User Rating  : 4/10
    
    
    Format                           : MPEG-PS
    Overall bit rate                 : 6 556 Kbps
    
    Video
    ID                               : 224 (0xE0)
    Format                           : MPEG Video
    Format version                   : Version 2
    Format profile                   : [email protected]
    Format settings, BVOP            : Yes
    Format settings, Matrix          : Default
    Format settings, GOP             : M=3, N=13
    Bit rate mode                    : Constant
    Bit rate                         : 6 000 Kbps
    Width                            : 720 pixels
    Height                           : 480 pixels
    Display aspect ratio             : 4:3
    Frame rate                       : 29.970 fps
    Standard                         : NTSC
    Color space                      : YUV
    Chroma subsampling               : 4:2:0
    Bit depth                        : 8 bits
    Scan type                        : Interlaced
    Scan order                       : Top Field First
    Compression mode                 : Lossy
    Bits/(Pixel*Frame)               : 0.579
    Stream size                      : 172 MiB (91%)
    
    Audio
    ID                               : 189 (0xBD)-128 (0x80)
    Format                           : AC-3
    Format/Info                      : Audio Coding 3
    Mode extension                   : CM (complete main)
    Muxing mode                      : DVD-Video
    Bit rate mode                    : Constant
    Bit rate                         : 448 Kbps
    Channel(s)                       : 5 channels
    Channel positions                : Front: L C R, Side: C, LFE
    Sampling rate                    : 48.0 KHz
    Bit depth                        : 16 bits
    Compression mode                 : Lossy
    Delay relative to video          : -58ms
    Stream size                      : 12.9 MiB (7%)
    
    Text
    ID                               : 189 (0xBD)-32 (0x20)
    Format                           : RLE
    Format/Info                      : Run-length encoding
    Muxing mode                      : DVD-Video
    Delay relative to video          : 1s 768ms
    TrackList
    01 - Teri Palkein Jo Jhuki - Naam Gum Jaayega (2005) - Music Videos - Untouched - DVD9 - NTSC - Ibraram
    02 - Humein Tum se - Naam Gum Jaayega (2005) - Music Videos - Untouched - DVD9 - NTSC - Ibraram
    03 - Kabhi Ye Na - Naam Gum Jaayega (2005) - Music Videos - Untouched - DVD9 - NTSC - Ibraram
    04 - Tum Shayad Bhoole - Naam Gum Jaayega (2005) - Music Videos - Untouched - DVD9 - NTSC - Ibraram
    05 - Raaton Mein Jagaya - Naam Gum Jaayega (2005) - Music Videos - Untouched - DVD9 - NTSC - Ibraram

    SCREENSHOTS







    Download links
    Filesonic
    Code:
    http://www.filesonic.com/file/4260000294/Humein_Tum_se_-_Naam_Gum_Jaayega_(2005)_-_Music_Videos_-_Untouched_-_DVD9_-_NTSC_-_Ibraram.By.PlaBon.VOB
    http://www.filesonic.com/file/4259675014/Kabhi_Ye_Na_-_Naam_Gum_Jaayega_(2005)_-_Music_Videos_-_Untouched_-_DVD9_-_NTSC_-_Ibraram.By.PlaBon.VOB
    http://www.filesonic.com/file/4259675924/Raaton_Mein_Jagaya_-_Naam_Gum_Jaayega_(2005)_-_Music_Videos_-_Untouched_-_DVD9_-_NTSC_-_Ibraram.By.PlaBon.VOB
    http://www.filesonic.com/file/4259738035/Teri_Palkein_Jo_Jhuki_-_Naam_Gum_Jaayega_(2005)_-_Music_Videos_-_Untouched_-_DVD9_-_NTSC_-_Ibraram.By.PlaBon.VOB
    http://www.filesonic.com/file/4259653964/Tum_Shayad_Bhoole_-_Naam_Gum_Jaayega_(2005)_-_Music_Videos_-_Untouched_-_DVD9_-_NTSC_-_Ibraram.By.PlaBon.VOB
    Fileserve
    Code:
    http://www.fileserve.com/file/zTqUDbv/Humein Tum se - Naam Gum Jaayega (2005) - Music Videos - Untouched - DVD9 - NTSC - Ibraram.By.PlaBon.VOB
    http://www.fileserve.com/file/368RGYJ/Raaton Mein Jagaya - Naam Gum Jaayega (2005) - Music Videos - Untouched - DVD9 - NTSC - Ibraram.By.PlaBon.VOB
    http://www.fileserve.com/file/uQWaFhZ/Teri Palkein Jo Jhuki - Naam Gum Jaayega (2005) - Music Videos - Untouched - DVD9 - NTSC - Ibraram.By.PlaBon.VOB
    http://www.fileserve.com/file/EsEGuCJ/Kabhi Ye Na - Naam Gum Jaayega (2005) - Music Videos - Untouched - DVD9 - NTSC - Ibraram.By.PlaBon.VOB
    http://www.fileserve.com/file/VNRMmKV/Tum Shayad Bhoole - Naam Gum Jaayega (2005) - Music Videos - Untouched - DVD9 - NTSC - Ibraram.By.PlaBon.VOB
    Filefactory
    Resumeable like Mediafire
    Code:
    http://www.filefactory.com/file/c0df443/n/03_-_Kabhi_Ye_Na_-_Naam_Gum_Jaayega_(2005)_-_Music_Videos_-_Untouched_-_DVD9_-_NTSC_-_Ibraram.VOB
    http://www.filefactory.com/file/c0de1fb/n/05_-_Raaton_Mein_Jagaya_-_Naam_Gum_Jaayega_(2005)_-_Music_Videos_-_Untouched_-_DVD9_-_NTSC_-_Ibraram.VOB
    http://www.filefactory.com/file/c0de1d0/n/02_-_Humein_Tum_se_-_Naam_Gum_Jaayega_(2005)_-_Music_Videos_-_Untouched_-_DVD9_-_NTSC_-_Ibraram.VOB
    http://www.filefactory.com/file/c0de1c9/n/04_-_Tum_Shayad_Bhoole_-_Naam_Gum_Jaayega_(2005)_-_Music_Videos_-_Untouched_-_DVD9_-_NTSC_-_Ibraram.VOB
    http://www.filefactory.com/file/c0de1cf/n/01_-_Teri_Palkein_Jo_Jhuki_-_Naam_Gum_Jaayega_(2005)_-_Music_Videos_-_Untouched_-_DVD9_-_NTSC_-_Ibraram.VOB

 

 

Posting Permissions

  • You may not post new threads
  • You may not post replies
  • You may not post attachments
  • You may not edit your posts
  •