Results 1 to 1 of 1
  1. #1
    dR Rockers www.desirulez.net
    Join Date
    Aug 2011
    Posts
    5,859

    T

    Default Swami Dada (1982) - 1.37GB - 2CD - XViD - ESubs - {ExD|XMR}

    Follow us on Social Media











    *File Info*

    Quote
    Format : AVI
    Format/Info : Audio Video Interleave
    File size : 1.37 GiB
    Duration : 2h 31mn
    Overall bit rate : 1 293 Kbps
    Writing application : VirtualDubMod 1.5.10.2 (build 2542/release)
    Writing library : VirtualDubMod build 2542/release

    Video
    ID : 0
    Format : MPEG-4 Visual
    Format profile : Advanced [email protected]
    Format settings, BVOP : 2
    Format settings, QPel : Yes
    Format settings, GMC : No warppoints
    Format settings, Matrix : Custom
    Codec ID : XVID
    Codec ID/Hint : XviD
    Duration : 2h 31mn
    Bit rate : 1 060 Kbps
    Width : 624 pixels
    Height : 336 pixels
    Display aspect ratio : 1.857
    Frame rate : 23.976 fps
    Color space : YUV
    Chroma subsampling : 4:2:0
    Bit depth : 8 bits
    Scan type : Progressive
    Compression mode : Lossy
    Bits/(Pixel*Frame) : 0.211
    Stream size : 1.12 GiB (82%)
    Writing library : XviD 1.2.1 (UTC 2008-12-04)

    Audio
    ID : 1
    Format : AC-3
    Format/Info : Audio Coding 3
    Mode extension : CM (complete main)
    Codec ID : 2000
    Duration : 2h 31mn
    Bit rate mode : Constant
    Bit rate : 224 Kbps
    Channel(s) : 6 channels
    Channel positions : Front: L C R, Side: L R, LFE
    Sampling rate : 48.0 KHz
    Bit depth : 16 bits
    Compression mode : Lossy
    Stream size : 242 MiB (17%)
    Alignment : Split accross interleaves
    Interleave, duration : 42 ms (1.00 video frame)
    Interleave, preload duration : 500 ms



    Ripper Myself(Ajit)
    Source DVD9
    Subtitle English

    XMR Encode! Enjoy! Another Dev Anand classic ... not vintage. A tribute from XMR to an actor, director, producer and a wonderful personality.

    *Movie Info*

    Swami Dada (1982) - IMDb

    Hari Mohan is a saintly person who organizes Hindu prayers and discourses in a warm and welcoming atmosphere. He is called "Swami Dada" by everyone. He has many followers, and devotees who throng in large numbers to hear his sermons. What they do not know that Hari Mohan is a professional thief, and is now conspiring with a young woman, and a group of orphaned children to steal the temple jewellery.

    *Screenshots*










    SINGLE LINK

    Code:
    http://www.filesonic.com/file/4243038754/Swami Dada 2CD XViD -=XMR=-.avi
    Code:
    http://www.fileserve.com/file/WrW3xNx/Swami Dada 2CD XViD -=XMR=-.avi
    Code:
    http://www.filejungle.com/f/jh97tc/Swami Dada 2CD XViD -=XMR=-.avi
    450MB LINKS


    Code:
    http://www.filejungle.com/f/yjc3SS/Swami Dada 2CD XViD -=XMR=-.avi.001
    http://www.filejungle.com/f/3WvuQJ/Swami Dada 2CD XViD -=XMR=-.avi.002
    http://www.filejungle.com/f/YKr5MW/Swami Dada 2CD XViD -=XMR=-.avi.003
    http://www.filejungle.com/f/te8fsF/Swami Dada 2CD XViD -=XMR=-.avi.004
    
    
    http://www.filesonic.com/file/4240751784/Swami Dada 2CD XViD -=XMR=-.avi.001
    http://www.filesonic.com/file/4240764624/Swami Dada 2CD XViD -=XMR=-.avi.002
    http://www.filesonic.com/file/4240769824/Swami Dada 2CD XViD -=XMR=-.avi.003
    http://www.filesonic.com/file/4240756294/Swami Dada 2CD XViD -=XMR=-.avi.004
    
    
    
    http://www.fileserve.com/file/6qX4B2H/Swami Dada 2CD XViD -=XMR=-.avi.001
    http://www.fileserve.com/file/QRGUZK3/Swami Dada 2CD XViD -=XMR=-.avi.002
    http://www.fileserve.com/file/YGgK4fw/Swami Dada 2CD XViD -=XMR=-.avi.003
    http://www.fileserve.com/file/Cdq7Bzg/Swami Dada 2CD XViD -=XMR=-.avi.004

 

 

Posting Permissions

  • You may not post new threads
  • You may not post replies
  • You may not post attachments
  • You may not edit your posts
  •