Results 1 to 1 of 1
  1. #1

    Thumbs up Dharkan (2000) Untouched DVD9 NTSC - DrC

    Follow us on Social Media








    Dual Audio (6 channel) Hindi + Russian
    Subtitle English

    Technical Info

    Format : MPEG-PS
    File size : 1 024 MiB
    Duration : 25mn 52s
    Overall bit rate mode : Variable
    Overall bit rate : 5 530 Kbps

    Video
    ID : 224 (0xE0)
    Format : MPEG Video
    Format version : Version 2
    Format profile : [email protected]
    Format settings, BVOP : Yes
    Format settings, Matrix : Default
    Format settings, GOP : M=3, N=13
    Duration : 25mn 52s
    Bit rate mode : Variable
    Bit rate : 4 780 Kbps
    Maximum bit rate : 7 000 Kbps
    Width : 720 pixels
    Height : 480 pixels
    Display aspect ratio : 2.35:1
    Frame rate : 23.976 fps
    Standard : NTSC
    Color space : YUV
    Chroma subsampling : 4:2:0
    Bit depth : 8 bits
    Scan type : Progressive
    Scan order : 2:3 Pulldown
    Compression mode : Lossy
    Bits/(Pixel*Frame) : 0.577
    Stream size : 885 MiB (86%)
    Color primaries : SMPTE 170M
    Transfer characteristics : SMPTE 170M
    Matrix coefficients : SMPTE 170M

    Audio #1
    ID : 189 (0xBD)-128 (0x80)
    Format : AC-3
    Format/Info : Audio Coding 3
    Mode extension : CM (complete main)
    Muxing mode : DVD-Video
    Duration : 25mn 52s
    Bit rate mode : Constant
    Bit rate : 192 Kbps
    Channel(s) : 2 channels
    Channel positions : Front: L R
    Sampling rate : 48.0 KHz
    Bit depth : 16 bits
    Compression mode : Lossy
    Delay relative to video : -170ms
    Stream size : 35.5 MiB (3%)

    Audio #2
    ID : 189 (0xBD)-129 (0x81)
    Format : AC-3
    Format/Info : Audio Coding 3
    Mode extension : CM (complete main)
    Muxing mode : DVD-Video
    Duration : 25mn 52s
    Bit rate mode : Constant
    Bit rate : 448 Kbps
    Channel(s) : 6 channels
    Channel positions : Front: L C R, Side: L R, LFE
    Sampling rate : 48.0 KHz
    Bit depth : 16 bits
    Compression mode : Lossy
    Delay relative to video : -202ms
    Stream size : 82.9 MiB (8%)







    Code:
    http://www.filesonic.com/file/4239285215/AMP-Dharkan.2000.Untouched.DVD9.NTSC.DrC.part01.rar
    http://www.filesonic.com/file/4239287085/AMP-Dharkan.2000.Untouched.DVD9.NTSC.DrC.part02.rar
    http://www.filesonic.com/file/4239277885/AMP-Dharkan.2000.Untouched.DVD9.NTSC.DrC.part03.rar
    http://www.filesonic.com/file/4239286965/AMP-Dharkan.2000.Untouched.DVD9.NTSC.DrC.part04.rar
    http://www.filesonic.com/file/4239320635/AMP-Dharkan.2000.Untouched.DVD9.NTSC.DrC.part05.rar
    http://www.filesonic.com/file/4239316045/AMP-Dharkan.2000.Untouched.DVD9.NTSC.DrC.part06.rar
    http://www.filesonic.com/file/4239320765/AMP-Dharkan.2000.Untouched.DVD9.NTSC.DrC.part07.rar
    http://www.filesonic.com/file/4239320685/AMP-Dharkan.2000.Untouched.DVD9.NTSC.DrC.part08.rar
    http://www.filesonic.com/file/4239326565/AMP-Dharkan.2000.Untouched.DVD9.NTSC.DrC.part09.rar
    http://www.filesonic.com/file/4239320655/AMP-Dharkan.2000.Untouched.DVD9.NTSC.DrC.part10.rar

    Code:
    http://www.fileserve.com/file/k3Yd5MJ/AMP-Dharkan.2000.Untouched.DVD9.NTSC.DrC.part01.rar
    http://www.fileserve.com/file/UAYHdZb/AMP-Dharkan.2000.Untouched.DVD9.NTSC.DrC.part02.rar
    http://www.fileserve.com/file/wxj8Dje/AMP-Dharkan.2000.Untouched.DVD9.NTSC.DrC.part03.rar
    http://www.fileserve.com/file/ty2EgWa/AMP-Dharkan.2000.Untouched.DVD9.NTSC.DrC.part04.rar
    http://www.fileserve.com/file/8fRV8sw/AMP-Dharkan.2000.Untouched.DVD9.NTSC.DrC.part05.rar
    http://www.fileserve.com/file/Bpmu38k/AMP-Dharkan.2000.Untouched.DVD9.NTSC.DrC.part06.rar
    http://www.fileserve.com/file/7sG9eZp/AMP-Dharkan.2000.Untouched.DVD9.NTSC.DrC.part07.rar
    http://www.fileserve.com/file/pjPpDBq/AMP-Dharkan.2000.Untouched.DVD9.NTSC.DrC.part08.rar
    http://www.fileserve.com/file/tCXcFVk/AMP-Dharkan.2000.Untouched.DVD9.NTSC.DrC.part09.rar
    http://www.fileserve.com/file/TpPncsV/AMP-Dharkan.2000.Untouched.DVD9.NTSC.DrC.part10.rar

    Code:
    http://www.netload.in/dateiLEfNzGuvWU/AMP-Dharkan.2000.Untouched.DVD9.NTSC.DrC.part01.rar.htm
    http://www.netload.in/dateieyU8hQuRfT/AMP-Dharkan.2000.Untouched.DVD9.NTSC.DrC.part02.rar.htm
    http://www.netload.in/dateiWdazLFawaj/AMP-Dharkan.2000.Untouched.DVD9.NTSC.DrC.part03.rar.htm
    http://www.netload.in/datei2KxS3e90Az/AMP-Dharkan.2000.Untouched.DVD9.NTSC.DrC.part04.rar.htm
    http://www.netload.in/dateijW6S6bqbEo/AMP-Dharkan.2000.Untouched.DVD9.NTSC.DrC.part05.rar.htm
    http://www.netload.in/dateilbEUX1NUhO/AMP-Dharkan.2000.Untouched.DVD9.NTSC.DrC.part06.rar.htm
    http://www.netload.in/dateijPycLhQi2z/AMP-Dharkan.2000.Untouched.DVD9.NTSC.DrC.part07.rar.htm
    http://www.netload.in/dateifzfvzWabDc/AMP-Dharkan.2000.Untouched.DVD9.NTSC.DrC.part08.rar.htm
    http://www.netload.in/dateiFBkXycfAvh/AMP-Dharkan.2000.Untouched.DVD9.NTSC.DrC.part09.rar.htm
    http://www.netload.in/dateiKDCbLUrUj9/AMP-Dharkan.2000.Untouched.DVD9.NTSC.DrC.part10.rar.htm
    Man is still the most extraordinary computer of all.




 

 

Posting Permissions

  • You may not post new threads
  • You may not post replies
  • You may not post attachments
  • You may not edit your posts
  •