Results 1 to 1 of 1
  1. #1
    Banned www.desirulez.net
    Join Date
    Oct 2010
    Posts
    2,885

    T

    Talking WWE.NXT.12.14.2011.360p.H.264.ACC.MM.snaw90

    Follow us on Social Media







    WWE.NXT.12.14.2011.360p.H.264.ACC.MM.snaw90



    General
    Complete name :WWE.NXT.12.14.2011.360p.H.264.ACC.MM.snaw90.mp4
    Format : MP4
    File size : 348 MiB
    Duration : 45mn 46s


    Video

    Format : AVC
    Duration : 45mn 46s
    Width : 512 pixels
    Height : 384 pixels
    Display aspect ratio : 4:3
    Frame rate mode : Constant
    Frame rate : 29.970 fps
    Chroma subsampling : 4:2:0
    Stream size : 304 MiB
    Language : English

    Audio

    Format : AAC
    Format profile : LC
    Duration : 45mn 46s
    Bit rate : 128 Kbps
    Channel(s) : 2 channels
    SStream size : 41.9 MiB
    Language : English
    Code:
    FILESERVE
    http://www.fileserve.com/file/UTkZshF/WWE.NXT.12.14.2011.360p.H.264.ACC.MM.snaw90.mp4
    
    FILEOSNIC
    http://www.filesonic.com/file/4231869145/WWE.NXT.12.14.2011.360p.H.264.ACC.MM.snaw90.mp4
    
    FILEJUNGLE
    http://www.filejungle.com/f/pbfBvm/WWE.NXT.12.14.2011.360p.H.264.ACC.MM.snaw90.mp4
    
    FILEPSOT
    http://filepost.com/files/15971b57/WWE.NXT.12.14.2011.360p.H.264.ACC.MM.snaw90.mp4/

 

 

Posting Permissions

  • You may not post new threads
  • You may not post replies
  • You may not post attachments
  • You may not edit your posts
  •