Results 1 to 1 of 1
  1. #1

    Thumbs up Khakee (2004) UpScaled DVDRip 720p - AMP

    Follow us on Social Media








    General
    Complete name : Khakee (2004) UpScaled\Khakee (2004) UpScaled.mkv
    Format : Matroska
    File size : 4.16 GiB
    Duration : 2h 50mn
    Overall bit rate : 3 491 Kbps
    Encoded date : UTC 2009-11-29 10:43:42
    Writing application : mkvmerge v2.9.5 ('Tu es le seul') built on Jun 7 2009 11:07:07
    Writing library : libebml v0.7.7 + libmatroska v0.8.1

    Video
    ID : 1
    Format : AVC
    Format/Info : Advanced Video Codec
    Format profile : [email protected]
    Format settings, CABAC : Yes
    Format settings, ReFrames : 1 frame
    Muxing mode : Container [email protected]
    Codec ID : V_MPEG4/ISO/AVC
    Duration : 2h 50mn
    Bit rate : 3 198 Kbps
    Nominal bit rate : 3 000 Kbps
    Width : 1 280 pixels
    Height : 544 pixels
    Display aspect ratio : 2.35:1
    Frame rate : 25.000 fps
    Resolution : 8 bits
    Colorimetry : 4:2:0
    Scan type : Progressive
    Bits/(Pixel*Frame) : 0.184
    Stream size : 3.81 GiB (92%)
    Writing library : x264 core 68 r1183M f21daff
    Encoding settings : cabac=1 / ref=1 / deblock=1:-1:-1 / analyse=0x3:0x113 / me=hex / subme=6 / psy_rd=1.0:0.0 / mixed_ref=0 / me_range=16 / chroma_me=1 / trellis=0 / 8x8dct=1 / cqm=0 / deadzone=21,11 / chroma_qp_offset=-2 / threads=3 / nr=0 / decimate=1 / mbaff=0 / bframes=0 / keyint=250 / keyint_min=25 / scenecut=40 / rc=2pass / bitrate=3000 / ratetol=1.0 / qcomp=0.60 / qpmin=10 / qpmax=51 / qpstep=4 / cplxblur=20.0 / qblur=0.5 / ip_ratio=1.40 / aq=1:1.00

    Audio
    ID : 2
    Format : AC-3
    Format/Info : Audio Coding 3
    Codec ID : A_AC3
    Duration : 2h 50mn
    Bit rate mode : Constant
    Bit rate : 224 Kbps
    Channel(s) : 2 channels
    Channel positions : Front: L R
    Sampling rate : 48.0 KHz
    Stream size : 273 MiB (6%)











    Code:
    http://www.filesonic.com/file/4214554175/AMP-Khakee.2004.UpScaled.DVDRip.720p.mkv.001
    http://www.filesonic.com/file/4214553535/AMP-Khakee.2004.UpScaled.DVDRip.720p.mkv.002
    http://www.filesonic.com/file/4214554265/AMP-Khakee.2004.UpScaled.DVDRip.720p.mkv.003
    http://www.filesonic.com/file/4214600115/AMP-Khakee.2004.UpScaled.DVDRip.720p.mkv.004
    http://www.filesonic.com/file/4214609625/AMP-Khakee.2004.UpScaled.DVDRip.720p.mkv.005
    http://www.filesonic.com/file/4214601145/AMP-Khakee.2004.UpScaled.DVDRip.720p.mkv.006
    http://www.filesonic.com/file/4214601225/AMP-Khakee.2004.UpScaled.DVDRip.720p.mkv.007

    Code:
    http://www.fileserve.com/file/A9RGefw/AMP-Khakee.2004.UpScaled.DVDRip.720p.mkv.001
    http://www.fileserve.com/file/9KgcHbX/AMP-Khakee.2004.UpScaled.DVDRip.720p.mkv.002
    http://www.fileserve.com/file/qgWfHvr/AMP-Khakee.2004.UpScaled.DVDRip.720p.mkv.003
    http://www.fileserve.com/file/v4XWzjR/AMP-Khakee.2004.UpScaled.DVDRip.720p.mkv.004
    http://www.fileserve.com/file/cjYMSyd/AMP-Khakee.2004.UpScaled.DVDRip.720p.mkv.005
    http://www.fileserve.com/file/mgYzFDy/AMP-Khakee.2004.UpScaled.DVDRip.720p.mkv.006
    http://www.fileserve.com/file/mH7U3yZ/AMP-Khakee.2004.UpScaled.DVDRip.720p.mkv.007

    Code:
    http://www.netload.in/dateilq5jeTcKXH/AMP-Khakee.2004.UpScaled.DVDRip.720p.mkv.001.htm
    http://www.netload.in/dateic0DyGM9cYg/AMP-Khakee.2004.UpScaled.DVDRip.720p.mkv.002.htm
    http://www.netload.in/datei5GQIvGNUtd/AMP-Khakee.2004.UpScaled.DVDRip.720p.mkv.003.htm
    http://www.netload.in/dateihCehfKKgLC/AMP-Khakee.2004.UpScaled.DVDRip.720p.mkv.004.htm
    http://www.netload.in/dateidLs81jPXL2/AMP-Khakee.2004.UpScaled.DVDRip.720p.mkv.005.htm
    http://www.netload.in/dateioVfQKHpSNc/AMP-Khakee.2004.UpScaled.DVDRip.720p.mkv.006.htm
    http://www.netload.in/datei1TUuwPUYkL/AMP-Khakee.2004.UpScaled.DVDRip.720p.mkv.007.htm
    Man is still the most extraordinary computer of all.




 

 

Posting Permissions

  • You may not post new threads
  • You may not post replies
  • You may not post attachments
  • You may not edit your posts
  •