Results 1 to 1 of 1
  1. #1
    Banned www.desirulez.net
    Join Date
    Feb 2011
    Posts
    2,003

    T

    Default Lanka (2011) - Audio Cleaned - 400 MB - DVDScr - XviD - AAC - MP4 - *AF*

    Follow us on Social Media







    Lanka (2011) - Audio Cleaned - 400 MB - DVDScr - XviD - AAC - MP4 - *AF*


    Code:
    Format                           : MPEG-4
    Format profile                   : Base Media / Version 2
    Codec ID                         : mp42
    File size                        : 398 MiB
    Duration                         : 1h 45mn
    Overall bit rate                 : 527 Kbps
    
    
    Video
    ID                               : 1
    Format                           : AVC
    Format/Info                      : Advanced Video Codec
    Format profile                   : [email protected]
    Format settings, CABAC           : Yes
    Format settings, ReFrames        : 4 frames
    Codec ID                         : avc1
    Codec ID/Info                    : Advanced Video Coding
    Duration                         : 1h 45mn
    Bit rate mode                    : Variable
    Bit rate                         : 431 Kbps
    Width                            : 688 pixels
    Height                           : 272 pixels
    Display aspect ratio             : 2.529
    Frame rate mode                  : Constant
    Frame rate                       : 25.000 fps
    Color space                      : YUV
    Chroma subsampling               : 4:2:0
    Bit depth                        : 8 bits
    Scan type                        : Progressive
    Bits/(Pixel*Frame)               : 0.092
    Stream size                      : 323 MiB (81%)
    Writing library                  : x264 core 112
    
    
    Audio
    ID                               : 2
    Format                           : AAC
    Format/Info                      : Advanced Audio Codec
    Format profile                   : LC
    Codec ID                         : 40
    Duration                         : 1h 45mn
    Bit rate mode                    : Variable
    Bit rate                         : 96.0 Kbps
    Maximum bit rate                 : 133 Kbps
    Channel(s)                       : 2 channels
    Channel positions                : Front: L R
    Sampling rate                    : 24.0 KHz
    Compression mode                 : Lossy
    Stream size                      : 72.4 MiB (18%)
    Encoded date                     : UTC 2011-12-12 08:47:01
    Tagged date                      : UTC 2011-12-12 08:57:17
    Material_Duration                : 6327339
    Material_StreamSize              : 75927984
    Screenshots:





    Single Link
    Code:
    http://www.sendmyway.com/r8km7iyqpi4i
    
    http://www.filefactory.com/file/c0b6436/n/Lanka_2011_-_Audio_Cleaned_-_400_MB_-_DVDScr_-_XviD_-_AAC_-_MP4_-_AF.mp4
    
    http://ul.to/u2v07wgt
    
    http://www.filesonic.com/file/4197862434
    
    http://www.fileserve.com/file/fbD62zA
    
    http://www.filejungle.com/f/vt662q

 

 

Posting Permissions

  • You may not post new threads
  • You may not post replies
  • You may not post attachments
  • You may not edit your posts
  •