Results 1 to 1 of 1
  1. #1

    Default Aditya 369 1991 1CD DVD Rip x264 .:: Team DSz ::.

    Follow us on Social Media







    Media Information

    General

    Complete name : Aditya 369 1CD DVD Rip x264.mp4
    Format : MPEG-4
    File size : 702 MiB
    Duration : 2h 31mn
    Overall bit rate : 649 Kbps

    Video

    Format : AVC
    Duration : 2h 31mn
    Bit rate mode : Variable
    Bit rate : 581 Kbps
    Maximum bit rate : 1 743 Kbps
    Width : 608 pixels
    Height : 320 pixels
    Display aspect ratio : 1.900
    Frame rate mode : Constant
    Frame rate : 23.976 fps
    Resolution : 24 bits
    Colorimetry : 4:2:0
    Scan type : Progressive
    Bits/(Pixel*Frame) : 0.125
    Stream size : 629 MiB (90%)

    Audio

    Format : AAC
    Duration : 2h 31mn
    Bit rate mode : Variable
    Bit rate : 64.0 Kbps
    Maximum bit rate : 128 Kbps
    Channel(s) : 2 channels
    Channel positions : L R
    Sampling rate : 48.0 KHz
    Resolution : 16 bits
    Stream size : 69.2 MiB (10%)
    Screen Shots

















    Code:
    http://www.filejungle.com/f/PzmTAJ/GMH-M-T-08-Leader-Aditya369.part1.rar
    http://www.filejungle.com/f/tsGgke/GMH-M-T-08-Leader-Aditya369.part1.rev
    http://www.filejungle.com/f/QQ4PrE/GMH-M-T-08-Leader-Aditya369.part2.rar


    Code:
    http://www.filesonic.com/file/4001016095/GMH-M-T-08-Leader-Aditya369.part1.rar
    http://www.filesonic.com/file/4001020045/GMH-M-T-08-Leader-Aditya369.part1.rev
    http://www.filesonic.com/file/4001839315/GMH-M-T-08-Leader-Aditya369.part2.rar


    Code:
    http://www.fileserve.com/file/WUVwwAF/GMH-M-T-08-Leader-Aditya369.part2.rar
    http://www.fileserve.com/file/SN9xdNN/GMH-M-T-08-Leader-Aditya369.part1.rev
    http://www.fileserve.com/file/DhqWTfj/GMH-M-T-08-Leader-Aditya369.part1.rar
    Password


    Leader

 

 

Posting Permissions

  • You may not post new threads
  • You may not post replies
  • You may not post attachments
  • You may not edit your posts
  •