Results 1 to 1 of 1
  1. #1
    Hot Member www.desirulez.me
    Join Date
    Sep 2011
    Posts
    2,243

    T

    Default UFC.140.PPV.WS.DSR.XviD-SuperS

    Follow us on Social Media







    UFC.140.PPV.WS.DSR.XviD-SuperS



    INFO
    Code:
    Format : AVI 
    Format/Info : Audio Video Interleave 
    Format profile : OpenDML 
    File size : 1.64 GiB 
    Duration : 2h 37mn 
    Overall bit rate : 1 492 Kbps 
    Writing library : MPlayer 
    
    Video 
    ID : 0 
    Format : MPEG-4 Visual 
    Codec ID : XVID 
    Codec ID/Hint : XviD 
    Duration : 2h 37mn 
    Bit rate : 47.7 Kbps 
    Width : 640 pixels 
    Height : 352 pixels 
    Display aspect ratio : 16:9 
    Frame rate : 25.000 fps 
    Color space : YUV 
    Chroma subsampling : 4:2:0 
    Compression mode : Lossy 
    Bits/(Pixel*Frame) : 0.008 
    Stream size : 53.6 MiB (3%) 
    
    Audio 
    ID : 1 
    Format : MPEG Audio 
    Codec ID : 55 
    Codec ID/Hint : MP3 
    Duration : 2h 37mn 
    Bit rate : 109 Kbps 
    Channel(s) : 2 channels 
    Sampling rate : 48.0 KHz 
    Compression mode : Lossy 
    Stream size : 123 MiB (7%) 
    Alignment : Aligned on interleaves
    Code:
    http://www.fileserve.com/file/Dc53X3N/UFC.140.PPV.WS.DSR.XviD-SuperS.part1.rar
    http://www.fileserve.com/file/wVm2S2G/UFC.140.PPV.WS.DSR.XviD-SuperS.part2.rar
    Code:
    http://www.filesonic.com/file/4169706385/UFC.140.PPV.WS.DSR.XviD-SuperS.part1.rar
    http://www.filesonic.com/file/4169706375/UFC.140.PPV.WS.DSR.XviD-SuperS.part2.rar
    Code:
    http://www.uploadstation.com/file/rG6dPAy/UFC.140.PPV.WS.DSR.XviD-SuperS.part1.rar
    http://www.uploadstation.com/file/VFjuCJS/UFC.140.PPV.WS.DSR.XviD-SuperS.part2.rar
    Code:
    http://bitshare.com/files/ca1yko85/UFC.140.PPV.WS.DSR.XviD-SuperS.part1.rar.html
    http://bitshare.com/files/cvighkml/UFC.140.PPV.WS.DSR.XviD-SuperS.part2.rar.html
    Code:
    http://www.filejungle.com/f/BQuv2F/UFC.140.PPV.WS.DSR.XviD-SuperS.part1.rar
    http://www.filejungle.com/f/jbsuuW/UFC.140.PPV.WS.DSR.XviD-SuperS.part2.rar
    DONT FORGET TO SAY THANKS

 

 

Posting Permissions

  • You may not post new threads
  • You may not post replies
  • You may not post attachments
  • You may not edit your posts
  •