Results 1 to 1 of 1
  1. #1
    dR Rockers www.desirulez.net
    Join Date
    Sep 2011
    Posts
    1,288

    T

    Arrow UFC.140.PPV.WS.DSR.XviD-SuperS

    Follow us on Social Media











    UFC.140.PPV.WS.DSR.XviD-SuperS





    Code:
    Format : AVI
    Format/Info : Audio Video Interleave
    Format profile : OpenDML
    File size : 1.64 GiB
    Duration : 2h 37mn
    Overall bit rate : 1 492 Kbps
    Writing library : MPlayer
    
    Video
    ID : 0
    Format : MPEG-4 Visual
    Codec ID : XVID
    Codec ID/Hint : XviD
    Duration : 2h 37mn
    Bit rate : 47.7 Kbps
    Width : 640 pixels
    Height : 352 pixels
    Display aspect ratio : 16:9
    Frame rate : 25.000 fps
    Color space : YUV
    Chroma subsampling : 4:2:0
    Compression mode : Lossy
    Bits/(Pixel*Frame) : 0.008
    Stream size : 53.6 MiB (3%)
    
    Audio
    ID : 1
    Format : MPEG Audio
    Codec ID : 55
    Codec ID/Hint : MP3
    Duration : 2h 37mn
    Bit rate : 109 Kbps
    Channel(s) : 2 channels
    Sampling rate : 48.0 KHz
    Compression mode : Lossy
    Stream size : 123 MiB (7%)
    Alignment : Aligned on interleaves







    [SINGLE LINK/1GB LINKS]
    Code:
    http://www.filesonic.com/file/4169520794/UFC.140.PPV.WS.DSR.XviD-SuperS.avi
    
    http://www.filesonic.com/file/4169528874/UFC.140.PPV.WS.DSR.XviD-SuperS.part1.rar
    http://www.filesonic.com/file/4169527884/UFC.140.PPV.WS.DSR.XviD-SuperS.part2.rar

    [SINGLE LINK/1GB LINKS]
    Code:
    http://www.fileserve.com/file/xUMW6tm/UFC.140.PPV.WS.DSR.XviD-SuperS.avi
    
    http://www.fileserve.com/file/ufa226r/UFC.140.PPV.WS.DSR.XviD-SuperS.part1.rar
    http://www.fileserve.com/file/UauDNbF/UFC.140.PPV.WS.DSR.XviD-SuperS.part2.rar

    [SINGLE LINK/1GB LINKS]
    Code:
    http://www.filejungle.com/f/qjDuPv/UFC.140.PPV.WS.DSR.XviD-SuperS.avi
    
    http://www.filejungle.com/f/Uu4R8T/UFC.140.PPV.WS.DSR.XviD-SuperS.part1.rar
    http://www.filejungle.com/f/yfZeXb/UFC.140.PPV.WS.DSR.XviD-SuperS.part2.rar

 

 

Posting Permissions

  • You may not post new threads
  • You may not post replies
  • You may not post attachments
  • You may not edit your posts
  •