Results 1 to 1 of 1
  1. #1
    dR Contributor www.desirulez.net
    Join Date
    Jun 2010
    Location
    India
    Posts
    2,470

    T

    Talking UFC.140.PPV.WS.DSR.XviD-SuperS

    Follow us on Social Media







    UFC.140.PPV.WS.DSR.XviD-SuperS




    Code:
    Format : AVI
    Format/Info : Audio Video Interleave
    Format profile : OpenDML
    File size : 1.64 GiB
    Duration : 2h 37mn
    Overall bit rate : 1 492 Kbps
    Writing library : MPlayer
    
    Video
    ID : 0
    Format : MPEG-4 Visual
    Codec ID : XVID
    Codec ID/Hint : XviD
    Duration : 2h 37mn
    Bit rate : 47.7 Kbps
    Width : 640 pixels
    Height : 352 pixels
    Display aspect ratio : 16:9
    Frame rate : 25.000 fps
    Color space : YUV
    Chroma subsampling : 4:2:0
    Compression mode : Lossy
    Bits/(Pixel*Frame) : 0.008
    Stream size : 53.6 MiB (3%)
    
    Audio
    ID : 1
    Format : MPEG Audio
    Codec ID : 55
    Codec ID/Hint : MP3
    Duration : 2h 37mn
    Bit rate : 109 Kbps
    Channel(s) : 2 channels
    Sampling rate : 48.0 KHz
    Compression mode : Lossy
    Stream size : 123 MiB (7%)
    Alignment : Aligned on interleaves




    Code:
    http://www.fileserve.com/file/8X6ChVQ/UFC.140.PPV.WS.DSR.XviD-SuperS.avi
    
    http://www.filesonic.com/file/4169440134/UFC.140.PPV.WS.DSR.XviD-SuperS.avi
    
    http://www.filejungle.com/f/Q4YdBX/UFC.140.PPV.WS.DSR.XviD-SuperS.avi



    Code:
    http://www.fileserve.com/file/2Ukvqf2/UFC.140.PPV.WS.DSR.XviD-SuperS.part1.rar
    http://www.fileserve.com/file/FyYg6Yz/UFC.140.PPV.WS.DSR.XviD-SuperS.part2.rar
    http://www.fileserve.com/file/UGjnXt4/UFC.140.PPV.WS.DSR.XviD-SuperS.part3.rar
    Code:
    http://www.filesonic.com/file/4169427634/UFC.140.PPV.WS.DSR.XviD-SuperS.part1.rar
    http://www.filesonic.com/file/4169427544/UFC.140.PPV.WS.DSR.XviD-SuperS.part2.rar
    http://www.filesonic.com/file/4169427534/UFC.140.PPV.WS.DSR.XviD-SuperS.part3.rar
    Code:
    http://www.filejungle.com/f/q4KsRV/UFC.140.PPV.WS.DSR.XviD-SuperS.part1.rar
    http://www.filejungle.com/f/WrD43s/UFC.140.PPV.WS.DSR.XviD-SuperS.part2.rar
    http://www.filejungle.com/f/2k44z6/UFC.140.PPV.WS.DSR.XviD-SuperS.part3.rar
    Last edited by Ash; 12-11-2011 at 11:56 AM.

 

 

Posting Permissions

  • You may not post new threads
  • You may not post replies
  • You may not post attachments
  • You may not edit your posts
  •