Results 1 to 2 of 2
  1. #1
    dR Dazzler www.desirulez.net
    Join Date
    Mar 2009
    Posts
    1,518

    T

    Default UFC.140.PPV.WS.DSR.XviD-SuperS

    Follow us on Social Media







    UFC.140.PPV.WS.DSR.XviD-SuperS





    Code:
    Format : AVI
    Format/Info : Audio Video Interleave
    Format profile : OpenDML
    File size : 1.64 GiB
    Duration : 2h 37mn
    Overall bit rate : 1 492 Kbps
    Writing library : MPlayer
    
    Video
    ID : 0
    Format : MPEG-4 Visual
    Codec ID : XVID
    Codec ID/Hint : XviD
    Duration : 2h 37mn
    Bit rate : 47.7 Kbps
    Width : 640 pixels
    Height : 352 pixels
    Display aspect ratio : 16:9
    Frame rate : 25.000 fps
    Color space : YUV
    Chroma subsampling : 4:2:0
    Compression mode : Lossy
    Bits/(Pixel*Frame) : 0.008
    Stream size : 53.6 MiB (3%)
    
    Audio
    ID : 1
    Format : MPEG Audio
    Codec ID : 55
    Codec ID/Hint : MP3
    Duration : 2h 37mn
    Bit rate : 109 Kbps
    Channel(s) : 2 channels
    Sampling rate : 48.0 KHz
    Compression mode : Lossy
    Stream size : 123 MiB (7%)
    Alignment : Aligned on interleaves






    Single Link:-
    Code:
    http://www.filesonic.com/file/4169394055/UFC.140.PPV.WS.DSR.XviD-SuperS.avi

    FileSonic Links:-
    Code:
    http://www.filesonic.com/file/4169397095/UFC.140.PPV.WS.DSR.XviD-SuperS.part1.rar
    http://www.filesonic.com/file/4169396905/UFC.140.PPV.WS.DSR.XviD-SuperS.part3.rar
    http://www.filesonic.com/file/4169396925/UFC.140.PPV.WS.DSR.XviD-SuperS.part2.rar
    FileServe Links:-
    Code:
    http://www.fileserve.com/file/cgXNfte/UFC.140.PPV.WS.DSR.XviD-SuperS.part1.rar
    http://www.fileserve.com/file/Rc83EaY/UFC.140.PPV.WS.DSR.XviD-SuperS.part2.rar
    http://www.fileserve.com/file/SQeMNVW/UFC.140.PPV.WS.DSR.XviD-SuperS.part3.rar
    FileJungle Links:-
    Code:
    http://www.filejungle.com/f/Mk9ks8/UFC.140.PPV.WS.DSR.XviD-SuperS.part3.rar
    http://www.filejungle.com/f/9taUbT/UFC.140.PPV.WS.DSR.XviD-SuperS.part1.rar
    http://www.filejungle.com/f/sdG8Er/UFC.140.PPV.WS.DSR.XviD-SuperS.part2.rar

  2. #2
    Hot Member www.desirulez.net
    Join Date
    Jun 2011
    Location
    mumbai,india
    Posts
    739

    T

    Default

    Thanks buddy



 

 

Posting Permissions

  • You may not post new threads
  • You may not post replies
  • You may not post attachments
  • You may not edit your posts
  •