Results 1 to 1 of 1
  1. #1
    Super Member www.desirulez.net
    Join Date
    Aug 2011
    Posts
    385

    Post Rsihtey [2002] - 2GB - DVDRip - XviD - Mp3 - Dus

    Follow us on Social Media





    Rsihtey [2002] - 2GB - DVDRip - XviD - Mp3 - Dus



    ------------------------------------------------------------------
    Rsihtey [2002] DVDRip Xvid Mp3 @ Dus
    ------------------------------------------------------------------


    General
    Complete name : D:\Ripped\Rsihtey [2002] DVDRip Xvid Mp3 @ Dus\Rsihtey [2002] DVDRip Xvid Mp3 @ Dus.avi
    Format : AVI
    Format/Info : Audio Video Interleave
    Format profile : OpenDML
    File size : 2.07 GiB
    Duration : 2h 43mn
    Overall bit rate : 1 813 Kbps
    Writing application : VirtualDubMod 1.5.10.2 (build 2540/release)
    Writing library : VirtualDubMod build 2540/release

    Video
    ID : 0
    Format : MPEG-4 Visual
    Format profile : Advanced [email protected]
    Format settings, BVOP : 2
    Format settings, QPel : No
    Format settings, GMC : No warppoints
    Format settings, Matrix : Default (H.263)
    Codec ID : XVID
    Codec ID/Hint : XviD
    Duration : 2h 43mn
    Bit rate : 1 545 Kbps
    Width : 672 pixels
    Height : 304 pixels
    Display aspect ratio : 2.2:1
    Frame rate : 23.976 fps
    Color space : YUV
    Chroma subsampling : 4:2:0
    Bit depth : 8 bits
    Scan type : Progressive
    Compression mode : Lossy
    Bits/(Pixel*Frame) : 0.315
    Stream size : 1.77 GiB (85%)
    Writing library : XviD 1.2.1 (UTC 2008-12-04)

    Audio
    ID : 1
    Format : MPEG Audio
    Format version : Version 1
    Format profile : Layer 3
    Mode : Joint stereo
    Codec ID : 55
    Codec ID/Hint : MP3
    Duration : 2h 43mn
    Bit rate mode : Constant
    Bit rate : 256 Kbps
    Channel(s) : 2 channels
    Sampling rate : 48.0 KHz
    Compression mode : Lossy
    Stream size : 300 MiB (14%)
    Alignment : Aligned on interleaves
    Interleave, duration : 42 ms (1.00 video frame)
    Interleave, preload duration : 504 ms
    Writing library : LAME3.98r
    Encoding settings : -m j -V 4 -q 2 -lowpass 19.7








    SINGLE LINK

    Code:
    http://www.filesonic.com/file/4158356755/Rsihtey [2002] DVDRip Xvid Mp3 @ Dus.avi
    Code:
    http://filepost.com/files/b375m1a4/Rsihtey_[2002]_DVDRip_Xvid_Mp3_@_Dus.avi
    450MB LINKS

    Code:
    http://www.filesonic.com/file/4158356765/Rsihtey [2002] DVDRip Xvid Mp3 @ Dus.avi.001
    http://www.filesonic.com/file/4158356785/Rsihtey [2002] DVDRip Xvid Mp3 @ Dus.avi.002
    http://www.filesonic.com/file/4158356795/Rsihtey [2002] DVDRip Xvid Mp3 @ Dus.avi.003
    http://www.filesonic.com/file/4158356815/Rsihtey [2002] DVDRip Xvid Mp3 @ Dus.avi.004
    http://www.filesonic.com/file/4158351245/Rsihtey [2002] DVDRip Xvid Mp3 @ Dus.avi.005
    Code:
    http://filepost.com/files/5mcmbd6m/Rsihtey_[2002]_DVDRip_Xvid_Mp3_@_Dus.avi.001
    http://filepost.com/files/481564cd/Rsihtey_[2002]_DVDRip_Xvid_Mp3_@_Dus.avi.002
    http://filepost.com/files/5d9mb2fd/Rsihtey_[2002]_DVDRip_Xvid_Mp3_@_Dus.avi.003
    http://filepost.com/files/319md976/Rsihtey_[2002]_DVDRip_Xvid_Mp3_@_Dus.avi.004
    http://filepost.com/files/7ca93a88/Rsihtey_[2002]_DVDRip_Xvid_Mp3_@_Dus.avi.005

 

 

Posting Permissions

  • You may not post new threads
  • You may not post replies
  • You may not post attachments
  • You may not edit your posts
  •