Results 1 to 1 of 1
  1. #1
    Hot Member www.desirulez.net
    Join Date
    Sep 2011
    Posts
    509

    Arrow Lanka - 2011 - 1CD PreDvd Scr Rip XviD

    Follow us on Social Media








    Code:
    Video
    ID                               : 0
    Format                           : xvid
    Codec ID                         : xvid
    Duration                         : 1h 40mn
    Bit rate                         : 932 Kbps
    Width                            : 560 pixels
    Height                           : 262 pixels
    Display aspect ratio             : 2.2:1
    Frame rate                       : 23.976 fps
    Bits/(Pixel*Frame)               : 0.265
    Stream size                      : 667 MiB (92%)
    
    Audio
    ID                               : 1
    Format                           : MPEG Audio
    Format version                   : Version 1
    Format profile                   : Layer 3
    Mode                             : Joint stereo
    Mode extension                   : MS Stereo
    Codec ID                         : 55
    Codec ID/Hint                    : MP3
    Duration                         : 1h 40mn
    Bit rate mode                    : Constant
    Bit rate                         : 64.0 Kbps
    Channel(s)                       : 2 channels
    Sampling rate                    : 44.1 KHz
    Compression mode                 : Lossy
    Stream size                      : 45.8 MiB (6%)
    Alignment                        : Aligned on interleaves
    Interleave, duration             : 26 ms (0.63 video frame)
    Interleave, preload duration     : 26 ms
    Writing library                  : LAMEUUULAME3.96.1
    **SCREEN SHOTS**








    Code:
    http://www.fileserve.com/file/GKNGQ5F
    http://www.filesonic.com/file/4154927704
    [img]http://i26.lulzimg.com/56b454.gif
    [/img]

 

 

Posting Permissions

  • You may not post new threads
  • You may not post replies
  • You may not post attachments
  • You may not edit your posts
  •