Results 1 to 1 of 1
  1. #1
    Hot Member www.desirulez.net
    Join Date
    Apr 2011
    Posts
    809

    T

    Thumbs up Lanka 2011 Scamrip 500MB

    Follow us on Social Media







    Lanka (2011) 500MB AVI SCam XviD Mp3 *EXCLUSIVE*



    Information:

    Code:
    Format                           : AVI
    Format/Info                      : Audio Video Interleave
    File size                        : 470 MiB
    Duration                         : 1h 40mn
    Overall bit rate                 : 657 Kbps
    Writing application              : Lavf52.39.1
    
    Video
    ID                               : 0
    Format                           : xvid
    Codec ID                         : xvid
    Duration                         : 1h 40mn
    Bit rate                         : 580 Kbps
    Width                            : 352 pixels
    Height                           : 288 pixels
    Display aspect ratio             : 1.222
    Frame rate                       : 23.976 fps
    Standard                         : PAL
    Bits/(Pixel*Frame)               : 0.239
    Stream size                      : 415 MiB (88%)
    
    Audio
    ID                               : 1
    Format                           : MPEG Audio
    Format version                   : Version 1
    Format profile                   : Layer 3
    Mode                             : Joint stereo
    Mode extension                   : MS Stereo
    Codec ID                         : 55
    Codec ID/Hint                    : MP3
    Duration                         : 1h 40mn
    Bit rate mode                    : Constant
    Bit rate                         : 64.0 Kbps
    Channel(s)                       : 2 channels
    Sampling rate                    : 44.1 KHz
    Compression mode                 : Lossy
    Stream size                      : 45.8 MiB (10%)
    Alignment                        : Aligned on interleaves
    Interleave, duration             : 26 ms (0.63 video frame)
    Interleave, preload duration     : 26 ms
    Writing library                  : LAMEUUULAME3.96.1
    Screens:



    Download Links:

    Download Lanka_(2011)_500MB_Scam_Rip_XviD_Mp3.avi for free on Filesonic.com
    FilePost.com: Download Lanka_(2011)_500MB_Scam_Rip_XviD_Mp3.avi - fast & secure!
    Download Lanka_(2011)_500MB_Scam_Rip_XviD_Mp3 avi, fast and secure downloading from crocko.com
    Download Lanka_(2011)_500MB_Scam_Rip_XviD_Mp3.avi for free on uploading.com



 

 

Posting Permissions

  • You may not post new threads
  • You may not post replies
  • You may not post attachments
  • You may not edit your posts
  •