Results 1 to 1 of 1
  1. #1
    Hot Member www.desirulez.net
    Join Date
    Apr 2011
    Posts
    809

    T

    Thumbs up Ladies Vs Ricky Bahl (2011) 1CD Scam 600MB

    Follow us on Social Media







    Ladies Vs Ricky Bahl (2011) 1CD Scam AVI



    Information:

    Code:
    Format                           : AVI
    Format/Info                      : Audio Video Interleave
    File size                        : 619 MiB
    Duration                         : 2h 9mn
    Overall bit rate                 : 667 Kbps
    Writing application              : Lavf52.39.1
    
    Video
    ID                               : 0
    Format                           : xvid
    Codec ID                         : xvid
    Duration                         : 2h 9mn
    Bit rate                         : 590 Kbps
    Width                            : 352 pixels
    Height                           : 288 pixels
    Display aspect ratio             : 1.222
    Frame rate                       : 23.976 fps
    Standard                         : PAL
    Bits/(Pixel*Frame)               : 0.243
    Stream size                      : 548 MiB (89%)
    
    Audio
    ID                               : 1
    Format                           : MPEG Audio
    Format version                   : Version 1
    Format profile                   : Layer 3
    Mode                             : Joint stereo
    Mode extension                   : MS Stereo
    Codec ID                         : 55
    Codec ID/Hint                    : MP3
    Duration                         : 2h 9mn
    Bit rate mode                    : Constant
    Bit rate                         : 64.0 Kbps
    Channel(s)                       : 2 channels
    Sampling rate                    : 44.1 KHz
    Compression mode                 : Lossy
    Stream size                      : 59.4 MiB (10%)
    Alignment                        : Aligned on interleaves
    Interleave, duration             : 26 ms (0.63 video frame)
    Interleave, preload duration     : 26 ms
    Screenshots:



















    Download Ladies VS Ricky Bhai 2011.avi for free on Filesonic.com VS Ricky Bhai 2011.avi
    FilePost.com: Download Ladies VS Ricky Bhai - BanneD.avi - fast & secure!
    Download Ladiesvsrickybhal avi, fast and secure downloading from crocko.com



 

 

Posting Permissions

  • You may not post new threads
  • You may not post replies
  • You may not post attachments
  • You may not edit your posts
  •