Results 1 to 1 of 1
  1. #1
    Hot Member www.desirulez.me
    Join Date
    Nov 2011
    Posts
    6,015

    T

    Thumbs up WWE Superstars.12.8.2011.720p.x264.Mp4-MM.Snaw90-(Excellent quality)

    Follow us on Social Media







    WWE Superstars.12.8.2011.720p.x264.Mp4-MM.Snaw90-(Excellent quality)




    Code:
    
    
    General
    Complete name                  : WWE Superstars.12.8.2011.720p.x264.Mp4-MM.Snaw90-(Excellent quality).mp4
    Format                             : MPEG-4
    File size                            : 920 MiB
    Duration                           : 45mn 40s
    
    
    Video
    
    Format                             : AVC
    Duration                           : 45mn 40s
    Bit rate                            : 2656 Kbps
    Width                              : 1280 pixels
    Height                             : 720 pixels
    Display aspect ratio           : 16:9
    Frame rate                       : 29.970 fps
    Original frame rate             : 29.000 fps
    Stream size                      : 868 MiB 
    Language                         : English
    
    Audio
    
    Format                           : AAC
    Duration                         : 45mn 40s
    Bit rate mode                  : Constant
    Bit rate                          : 152 Kbps
    Channel(s)                      : 2 channels
    Stream size                     : 49.7 MiB
    Language                        : English
    
    
    
    screen:





    Links :

    http://rapidshare.com/files/41616780...t_quality_.mp4

    Filejungle.com - #1 Hosting for Easy & Fast File Storage

    Free File Hosting, Online Storage &amp File Upload with FileServe

    Download WWE_Superstars.12.8.2011.720p.x264.Mp4-MM.Snaw90-(Excellent_quality).mp4 for free on Filesonic.com

 

 

Posting Permissions

  • You may not post new threads
  • You may not post replies
  • You may not post attachments
  • You may not edit your posts
  •