Results 1 to 1 of 1
  1. #1
    dR Rockers www.desirulez.net
    Join Date
    Aug 2011
    Posts
    5,859

    T

    Default Sunny [1984] - 1.45GB - DVDRip - XviD - Mp3 - Dus

    Follow us on Social Media











    ------------------------------------------------------------------
    Sunny [1984] DVDRip Xvid Mp3 @ Dus
    ------------------------------------------------------------------
    HTML Code:
    General
    Complete name : D:\Ripped\Sunny [1984] DVDRip Xvid Mp3 @ Dus\Sunny [1984] DVDRip Xvid Mp3 @ Dus.avi
    Format : AVI
    Format/Info : Audio Video Interleave
    File size : 1.45 GiB
    Duration : 2h 14mn
    Overall bit rate : 1 540 Kbps
    Writing application : VirtualDubMod 1.5.10.2 (build 2540/release)
    Writing library : VirtualDubMod build 2540/release

    Video
    ID : 0
    Format : MPEG-4 Visual
    Format profile : Advanced [email protected]
    Format settings, BVOP : 2
    Format settings, QPel : No
    Format settings, GMC : No warppoints
    Format settings, Matrix : Default (H.263)
    Codec ID : XVID
    Codec ID/Hint : XviD
    Duration : 2h 14mn
    Bit rate : 1 273 Kbps
    Width : 672 pixels
    Height : 288 pixels
    Display aspect ratio : 2.35:1
    Frame rate : 29.970 fps
    Color space : YUV
    Chroma subsampling : 4:2:0
    Bit depth : 8 bits
    Scan type : Progressive
    Compression mode : Lossy
    Bits/(Pixel*Frame) : 0.219
    Stream size : 1.20 GiB (83%)
    Writing library : XviD 1.2.1 (UTC 2008-12-04)

    Audio
    ID : 1
    Format : MPEG Audio
    Format version : Version 1
    Format profile : Layer 3
    Mode : Joint stereo
    Mode extension : MS Stereo
    Codec ID : 55
    Codec ID/Hint : MP3
    Duration : 2h 14mn
    Bit rate mode : Constant
    Bit rate : 256 Kbps
    Channel(s) : 2 channels
    Sampling rate : 48.0 KHz
    Compression mode : Lossy
    Stream size : 247 MiB (17%)
    Alignment : Aligned on interleaves
    Interleave, duration : 33 ms (1.00 video frame)
    Interleave, preload duration : 504 ms
    Writing library : LAME3.98r
    Encoding settings : -m j -V 4 -q 2 -lowpass 19.7












    SINGLE LINK

    Code:
    http://www.filesonic.com/file/4143783855/Sunny [1984] DVDRip Xvid Mp3 @ Dus.avi
    Code:
    http://www.fileserve.com/file/cfgBxWv/Sunny [1984] DVDRip Xvid Mp3 @ Dus.avi
    Code:
    http://www.filejungle.com/f/mNxHu6/Sunny [1984] DVDRip Xvid Mp3 @ Dus.avi

    450MB LINKS

    Code:
    http://www.filesonic.com/file/4143781165/Sunny [1984] DVDRip Xvid Mp3 @ Dus.avi.001
    http://www.filesonic.com/file/4143781205/Sunny [1984] DVDRip Xvid Mp3 @ Dus.avi.002
    http://www.filesonic.com/file/4143780135/Sunny [1984] DVDRip Xvid Mp3 @ Dus.avi.003
    http://www.filesonic.com/file/4143781185/Sunny [1984] DVDRip Xvid Mp3 @ Dus.avi.004
    
    
    http://www.fileserve.com/file/ZtZUyeX/Sunny [1984] DVDRip Xvid Mp3 @ Dus.avi.001
    http://www.fileserve.com/file/CSYbtS7/Sunny [1984] DVDRip Xvid Mp3 @ Dus.avi.002
    http://www.fileserve.com/file/5yeZkPn/Sunny [1984] DVDRip Xvid Mp3 @ Dus.avi.003
    http://www.fileserve.com/file/K3Dm7QX/Sunny [1984] DVDRip Xvid Mp3 @ Dus.avi.004
    
    
    http://www.filejungle.com/f/CjgtJ2/Sunny [1984] DVDRip Xvid Mp3 @ Dus.avi.001
    http://www.filejungle.com/f/ktmzjk/Sunny [1984] DVDRip Xvid Mp3 @ Dus.avi.002
    http://www.filejungle.com/f/wHYxgR/Sunny [1984] DVDRip Xvid Mp3 @ Dus.avi.003
    http://www.filejungle.com/f/mw2dAG/Sunny [1984] DVDRip Xvid Mp3 @ Dus.avi.004

 

 

Posting Permissions

  • You may not post new threads
  • You may not post replies
  • You may not post attachments
  • You may not edit your posts
  •