Results 1 to 2 of 2
  1. #1
    dR Contributor www.desirulez.net
    Join Date
    Jun 2010
    Location
    India
    Posts
    2,470

    T

    Default WWE.Superstars.Dec.08.2011.StreamRip.x264-5r30

    Follow us on Social Media







    WWE.Superstars.Dec.08.2011.StreamRip.x264-5r30


    Code:
    File info and screens:
    
    http://img854.imageshack.us/img854/4850/wwesuperstarsdec082011s.jpg
    http://img405.imageshack.us/img405/4850/wwesuperstarsdec082011s.jpg
    http://img248.imageshack.us/img248/4850/wwesuperstarsdec082011s.jpg
    http://img641.imageshack.us/img641/4850/wwesuperstarsdec082011s.jpg
    
    General
    Complete name                  : WWE.Superstars.Dec.08.2011.StreamRip.h264-5r30.mp4
    Format                           : MPEG-4
    Format profile                   : Base Media
    Codec ID                         : isom
    File size                        : 209 MiB
    Duration                         : 49mn 33s
    Overall bit rate                 : 589 Kbps
    Writing application              : Lavf53.4.0
    
    Video
    ID                               : 1
    Format                           : AVC
    Format/Info                      : Advanced Video Codec
    Format profile                   : [email protected]
    Format settings, CABAC           : No
    Format settings, ReFrames        : 3 frames
    Codec ID                         : avc1
    Codec ID/Info                    : Advanced Video Coding
    Duration                         : 49mn 33s
    Bit rate                         : 521 Kbps
    Nominal bit rate                 : 552 Kbps
    Width                            : 720 pixels
    Height                           : 404 pixels
    Display aspect ratio             : 16:9
    Frame rate mode                  : Variable
    Frame rate                       : 29.970 fps
    Minimum frame rate               : 29.392 fps
    Maximum frame rate               : 30.333 fps
    Color space                      : YUV
    Chroma subsampling               : 4:2:0
    Bit depth                        : 8 bits
    Scan type                        : Progressive
    Bits/(Pixel*Frame)               : 0.060
    Stream size                      : 185 MiB (88%)
    Writing library                  : x264 core 118 r2085 8a62835
    Encoding settings                : cabac=0 / ref=3 / deblock=1:0:0 / analyse=0x1:0x111 / me=hex / subme=5 / psy=1 / psy_rd=1.00:0.00 / mixed_ref=1 / me_range=16 / chroma_me=1 / trellis=1 / 8x8dct=0 / cqm=0 / deadzone=21,11 / fast_pskip=1 / chroma_qp_offset=0 / threads=24 / sliced_threads=0 / nr=0 / decimate=1 / interlaced=0 / bluray_compat=0 / constrained_intra=0 / bframes=0 / weightp=0 / keyint=150 / keyint_min=25 / scenecut=40 / intra_refresh=0 / rc_lookahead=40 / rc=2pass / mbtree=1 / bitrate=552 / ratetol=1.0 / qcomp=0.60 / qpmin=10 / qpmax=51 / qpstep=4 / cplxblur=20.0 / qblur=0.5 / vbv_maxrate=552 / vbv_bufsize=276 / nal_hrd=none / ip_ratio=1.40 / aq=1:1.00
    
    Audio
    ID                               : 2
    Format                           : AAC
    Format/Info                      : Advanced Audio Codec
    Format profile                   : LC
    Codec ID                         : 40
    Duration                         : 49mn 33s
    Bit rate mode                    : Variable
    Bit rate                         : 58.9 Kbps
    Maximum bit rate                 : 64.0 Kbps
    Channel(s)                       : 2 channels
    Channel positions                : Front: L R
    Sampling rate                    : 44.1 KHz
    Compression mode                 : Lossy
    Stream size                      : 20.9 MiB (10%)

    Code:
    http://www.fileserve.com/file/TdtYJs5/WWE.Superstars.Dec.08.2011.StreamRip.x264-5r30.mp4
    Code:
    http://www.filesonic.com/file/4142951714/WWE.Superstars.Dec.08.2011.StreamRip.x264-5r30.mp4
    Code:
    http://www.filejungle.com/f/msAcnC/WWE.Superstars.Dec.08.2011.StreamRip.x264-5r30.mp4

  2. #2
    Member www.desirulez.net
    Join Date
    Apr 2011
    Posts
    54

    T

    Default

    thanks

 

 

Posting Permissions

  • You may not post new threads
  • You may not post replies
  • You may not post attachments
  • You may not edit your posts
  •