Results 1 to 1 of 1
  1. #1

    Default Alluri Seetha Rama Raju 1974 2CD DVD Rip .:: Team DSz ::.

    Follow us on Social Media







    Media Information


    General

    Complete Name : Alluri Sitharamaraju DVD Rip.avi
    Format : AVI
    File size : 1.44 GiB
    Duration : 2h 55mn
    Overall bit rate : 1 175 Kbps

    Video

    Format : MPEG-4 Visual
    Duration : 2h 55mn
    Bit rate : 1 048 Kbps
    Width : 656 pixels
    Height : 352 pixels
    Display aspect ratio : 1.864
    Frame rate : 23.976 fps
    Resolution : 24 bits
    Colorimetry : 4:2:0
    Scan type : Progressive
    Bits/(Pixel*Frame) : 0.189
    Stream size : 1.28 GiB (89%)

    Audio

    Format : MPEG Audio
    Duration : 2h 55mn
    Bit rate mode : Variable
    Bit rate : 118 Kbps
    Nominal bit rate : 128 Kbps
    Channel(s) : 2 channels
    Sampling rate : 48.0 KHz
    Resolution : 16 bits
    Stream size : 148 MiB (10%)
    Screens




















    Code:
    http://www.filejungle.com/f/Z33g6Z/GMH-M-T-15-Leader-AlluriSitharamaraju.part1.rar
    http://www.filejungle.com/f/nGPYsr/GMH-M-T-15-Leader-AlluriSitharamaraju.part1.rev
    http://www.filejungle.com/f/6dJBTJ/GMH-M-T-15-Leader-AlluriSitharamaraju.part2.rar
    http://www.filejungle.com/f/z3urPG/GMH-M-T-15-Leader-AlluriSitharamaraju.part3.rar
    http://www.filejungle.com/f/TMSAJW/GMH-M-T-15-Leader-AlluriSitharamaraju.part4.rar

    Password


    Leader

 

 

Posting Permissions

  • You may not post new threads
  • You may not post replies
  • You may not post attachments
  • You may not edit your posts
  •