Results 1 to 1 of 1
  1. #1

    Default Buddah Hoga Tera Baap 2011 Bluray 720p x264 .:: Th3 KinG :: GMH ::.

    Follow us on Social Media







    Media Information


    General

    Complete Name : Buddah Hoga Tera Baap 2011 720p BluRay x264.mkv
    Format : Matroska
    File size : 4.37 GiB
    Duration : 1h 57mn
    Overall bit rate : 5 304 Kbps

    Video

    Format : AVC
    Format/Info : Advanced Video Codec
    Duration : 1h 57mn
    Bit rate : 3 689 Kbps
    Nominal bit rate : 3 784 Kbps
    Width : 1 280 pixels
    Height : 528 pixels
    Display aspect ratio : 2.40:1
    Frame rate : 23.976 fps
    Resolution : 24 bits
    Colorimetry : 4:2:0
    Scan type : Progressive
    Bits/(Pixel*Frame) : 0.228
    Stream size : 3.04 GiB (69%)
    Language : Hindi

    Audio

    Format : DTS
    Format/Info : Digital Theater Systems
    Duration : 1h 57mn
    Bit rate mode : Constant
    Bit rate : 1 510 Kbps
    Channel(s) : 6 channels
    Channel positions : Front: L C R, Surround: L R, LFE
    Sampling rate : 48.0 KHz
    Resolution : 24 bits
    Stream size : 1.24 GiB (28%)
    Language : Hindi

    Subtitle 1

    Format : VobSub
    Codec ID : S_VOBSUB
    Language : English

    Subtitle 2

    Format : VobSub
    Codec ID : S_VOBSUB
    Language : Arabic
    Screens




















    Code:
    http://www.filejungle.com/f/aEHTbu/[email protected]@[email protected]@@p.part01.rar
    http://www.filejungle.com/f/p2RWZC/[email protected]@[email protected]@@p.part01.rev
    http://www.filejungle.com/f/gnX6SD/[email protected]@[email protected]@@p.part02.rar
    http://www.filejungle.com/f/DhwVjn/[email protected]@[email protected]@@p.part03.rar
    http://www.filejungle.com/f/mBcm6j/[email protected]@[email protected]@@p.part04.rar
    http://www.filejungle.com/f/pVRKvV/[email protected]@[email protected]@@p.part05.rar
    http://www.filejungle.com/f/Dfsnd3/[email protected]@[email protected]@@p.part06.rar
    http://www.filejungle.com/f/WYEZsJ/[email protected]@[email protected]@@p.part07.rar
    http://www.filejungle.com/f/2SFYqM/[email protected]@[email protected]@@p.part08.rar
    http://www.filejungle.com/f/k22ubq/GMH-M-B-02-[email protected]@[email protected]@@p.part09.rar
    http://www.filejungle.com/f/c6gUvM/[email protected]@[email protected]@@p.part10.rar


    Code:
    http://www.filesonic.com/file/4084224625/[email protected]@[email protected]@@p.part01.rar
    http://www.filesonic.com/file/4084131525/[email protected]@[email protected]@@p.part02.rar
    http://www.filesonic.com/file/4084312295/[email protected]@[email protected]@@p.part03.rar
    http://www.filesonic.com/file/4084420435/[email protected]@[email protected]@@p.part04.rar
    http://www.filesonic.com/file/4084614895/[email protected]@[email protected]@@p.part05.rar
    http://www.filesonic.com/file/4084654195/[email protected]@[email protected]@@p.part06.rar
    http://www.filesonic.com/file/4085760105/[email protected]@[email protected]@@p.part07.rar
    http://www.filesonic.com/file/4085766975/[email protected]@[email protected]@@p.part08.rar
    http://www.filesonic.com/file/4086425165/[email protected]@[email protected]@@p.part09.rar
    http://www.filesonic.com/file/4086403005/[email protected]@[email protected]@@p.part10.rar


    Code:
    http://www.fileserve.com/file/VwUEy5B/[email protected]@[email protected]@@p.part09.rar
    http://www.fileserve.com/file/uqeMUut/[email protected]@[email protected]@@p.part10.rar
    http://www.fileserve.com/file/D2EWVZN/[email protected]@[email protected]@@p.part08.rar
    http://www.fileserve.com/file/XAskTBz/[email protected]@[email protected]@@p.part07.rar
    http://www.fileserve.com/file/CanhmWa/[email protected]@[email protected]@@p.part06.rar
    http://www.fileserve.com/file/QHmNhMC/[email protected]@[email protected]@@p.part05.rar
    http://www.fileserve.com/file/Mw5gWSe/[email protected]@[email protected]@@p.part04.rar
    http://www.fileserve.com/file/DBC9HNT/[email protected]@[email protected]@@p.part03.rar
    http://www.fileserve.com/file/pqCbW2Q/[email protected]@[email protected]@@p.part02.rar
    http://www.fileserve.com/file/7J8JuKE/[email protected]@[email protected]@@p.part01.rar
    http://www.fileserve.com/file/6JdC2c4/[email protected]@[email protected]@@p.part01.rev

    Password


    Leader

 

 

Posting Permissions

  • You may not post new threads
  • You may not post replies
  • You may not post attachments
  • You may not edit your posts
  •